<?xml version="1.0" standalone="no"?>
<!DOCTYPE svg PUBLIC "-//W3C//DTD SVG 1.1//EN" "http://www.w3.org/Graphics/SVG/1.1/DTD/svg11.dtd" >
<svg xmlns="http://www.w3.org/2000/svg">
<metadata>
This is a custom SVG font generated by IcoMoon.
0
</metadata>
<defs>
<font id="glyphicons" horiz-adv-x="512" >
<font-face units-per-em="512" ascent="480" descent="-32" />
<missing-glyph horiz-adv-x="512" />
<glyph unicode="&#xe000;" d="M 255.50,480.50c-141.163,0.00-256.00-114.837-256.00-256.00c0.00-141.164, 114.837-256.00, 256.00-256.00s 256.00,114.836, 256.00,256.00
		C 511.50,365.663, 396.663,480.50, 255.50,480.50z M 52.561,224.50c0.00,105.245, 77.551,192.082, 182.041,203.469L 234.602,20.99 
		C 130.112,32.418, 52.561,119.255, 52.561,224.50z" />
<glyph unicode="&#xe001;" d="M 308.833,288.50L 287.50,288.50 l0.00,192.00 l-64.00,0.00 l0.00-192.00 l-21.333,0.00 c-11.729,0.00-21.333-9.604-21.333-21.333l0.00-64.00 c0.00-11.729, 9.604-21.334, 21.333-21.334
		L 223.50,181.833 l 64.00,0.00 l 21.333,0.00 c 11.729,0.00, 21.334,9.604, 21.334,21.334l0.00,64.00 C 330.167,278.896, 320.563,288.50, 308.833,288.50z M 308.833,224.50L 202.167,224.50 
		l0.00,10.667 l 106.666,0.00 L 308.833,224.50 zM 479.50,395.167l-21.333,0.00 L 458.167,480.50 l-64.00,0.00 l0.00-85.333 l-21.334,0.00 c-11.729,0.00-21.333-9.604-21.333-21.333l0.00-64.00 
		c0.00-11.729, 9.604-21.333, 21.333-21.333l 21.334,0.00 l 64.00,0.00 L 479.50,288.501 c 11.729,0.00, 21.333,9.604, 21.333,21.333l0.00,64.00 
		C 500.833,385.562, 491.229,395.167, 479.50,395.167z M 479.50,331.167L 372.833,331.167 l0.00,10.667 L 479.50,341.834 L 479.50,331.167 zM 223.50,160.50L 287.50,160.50L 287.50-31.50L 223.50-31.50zM 138.167,181.833l-21.333,0.00 L 116.834,480.50 l-64.00,0.00 l0.00-298.667 L 31.50,181.833 c-11.729,0.00-21.333-9.604-21.333-21.333l0.00-64.00 
		c0.00-11.729, 9.604-21.333, 21.333-21.333l 21.334,0.00 l 64.00,0.00 l 21.333,0.00 c 11.729,0.00, 21.333,9.604, 21.333,21.333l0.00,64.00 
		C 159.50,172.229, 149.896,181.833, 138.167,181.833z M 138.167,117.833L 31.50,117.833 L 31.50,128.50 l 106.667,0.00 L 138.167,117.833 zM 394.167,267.167L 458.167,267.167L 458.167-31.50L 394.167-31.50zM 52.834,53.833L 116.834,53.833L 116.834-31.50L 52.834-31.50z" />
<glyph unicode="&#xe002;" d="M 404.833,480.50L 95.50,480.50 l-74.667-80.00l0.00-432.00 l 320.00,0.00 c 35.209,0.00, 64.00,28.792, 64.00,64.00L 404.833,331.167 c0.00,35.208-28.791,64.00-64.00,64.00L 79.166,395.167 l 42.667,42.667
		c0.00,0.00, 240.334,0.00, 261.667,0.00c 42.667,0.00, 64.00-21.333, 64.00-64.00c0.00-21.333,0.00-341.333,0.00-341.333l 42.667,42.667l0.00,320.00 
		C 490.167,437.833, 447.50,480.50, 404.833,480.50z M 106.166,123.041c0.00,9.771, 1.834,13.771, 9.292,18.043
		c 5.979,3.416, 57.146,20.02, 76.042,28.082L 191.50,188.50 c-10.00,2.666-21.334,18.271-21.334,28.291c0.00,23.292,0.00,42.459,0.00,42.459
		c0.00,22.958, 14.979,41.708, 42.667,41.854c 27.688-0.146, 42.667-18.896, 42.667-41.854c0.00,0.00,0.00-19.167,0.00-42.459
		c0.00-10.02-11.333-25.625-21.333-28.291l0.00-19.334 c 18.938-8.104, 70.063-24.666, 76.041-28.082c 7.459-4.271, 9.292-8.271, 9.292-18.043
		c0.00-4.02,0.00-21.895,0.00-21.895c0.00-2.543-2.104-4.646-4.646-4.646L 212.833,96.50 L 110.813,96.50 c-2.542,0.00-4.646,2.104-4.646,4.646
		C 106.166,101.146, 106.166,119.041, 106.166,123.041z" />
<glyph unicode="&#xe003;" d="M 493.60,129.796L 316.976,277.281L 316.976,420.295 c0.00,29.737-20.491,60.205-60.775,60.205c-40.283,0.00-62.176-30.448-62.176-60.185
		l0.00-143.014 L 17.401,129.815c-4.303-3.642-7.805-11.246-7.805-16.859l0.00-35.021 c0.00-5.634, 4.082-8.115, 9.065-5.493l 195.854,101.989l0.00-122.952 
		l-53.392-43.235c-4.442-3.441-8.085-10.886-8.085-16.52l0.00-15.469 c0.00-5.613, 4.423-8.955, 9.846-7.354l 72.122,21.103
		c 5.424,1.581, 35.561,1.581, 40.984,0.00l 72.122-21.103c 5.443-1.581, 9.846,1.741, 9.846,7.354l0.00,15.469 c0.00,5.613-3.643,13.078-8.085,16.54
		l-53.391,43.195L 296.482,174.412 l 195.834-101.78c 5.003-2.611, 9.085-0.149, 9.085,5.504l0.00,34.80 C 501.403,118.549, 497.882,126.153, 493.60,129.796
		z" />
<glyph unicode="&#xe004;" d="M 254.555,406.067c-116.134,0.00-210.632-94.498-210.632-210.632c0.00-116.133, 94.498-210.632, 210.632-210.632
		s 210.632,94.499, 210.632,210.632C 465.187,311.569, 370.688,406.067, 254.555,406.067z M 254.555,42.249
		c-84.466,0.00-153.187,68.721-153.187,153.187s 68.721,153.187, 153.187,153.187s 153.188-68.721, 153.188-153.187
		S 339.021,42.249, 254.555,42.249z M 30.076,320.049L 6.262,348.052c-10.285,12.286-8.658,30.751, 3.656,41.073L 90.26,457.771
		c 12.295,10.257, 32.079,7.845, 42.392-4.469l 28.002-32.911C 108.09,399.709, 63.875,362.198, 34.826,314.496L 30.076,320.049z
		 M 504.904,348.772l-29.909-35.744c-28.77,47.927-72.714,85.728-125.138,106.728l 27.76,33.164
		c 10.19,12.37, 29.956,14.979, 42.326,4.787l 80.979-67.898C 513.291,379.607, 515.067,361.142, 504.904,348.772z M 293.001,195.436
		c0.00-21.14-17.269-38.297-38.446-38.297c-14.127,0.00-26.348,7.732-32.996,19.148l-34.023,0.00 c-5.264,0.00-9.574,4.311-9.574,9.574l0.00,18.232 
		c0.00,5.245, 4.31,10.49, 9.574,10.49l 33.547,0.00 c 3.347,9.574, 8.293,10.762, 14.324,14.287l 0.019,71.572c0.00,5.264, 4.329,9.883, 9.574,9.883
		l 18.803,0.00 c 5.245,0.00, 9.901-4.60, 9.901-9.883l0.00-71.862 C 283.277,221.998, 293.001,209.685, 293.001,195.436z" />
<glyph unicode="&#xe005;" d="M 17.786,352.50l0.00-256.00 C 7.679,96.50-0.50,104.679-0.50,114.786L-0.50,334.214 C-0.50,344.321, 7.679,352.50, 17.786,352.50zM 493.214,352.50l0.00-256.00 c 10.107,0.00, 18.286,8.179, 18.286,18.286L 511.50,334.214 C 511.50,344.321, 503.321,352.50, 493.214,352.50zM 54.357,370.786l 18.286,0.00 l0.00-292.572 L 54.357,78.214 c-10.107,0.00-18.286,8.179-18.286,18.286l0.00,256.00 
		C 36.071,362.607, 44.25,370.786, 54.357,370.786zM 456.643,370.786l-18.285,0.00 l0.00-292.572 l 18.285,0.00 c 10.107,0.00, 18.286,8.179, 18.286,18.286l0.00,256.00 
		C 474.929,362.607, 466.75,370.786, 456.643,370.786zM 401.786,389.071L 109.214,389.071 c-10.054,0.00-18.286-8.232-18.286-18.286l0.00-292.572 c0.00-10.053, 8.232-18.285, 18.286-18.285l 292.572,0.00 
		c 10.053,0.00, 18.285,8.232, 18.285,18.285L 420.071,370.786 C 420.071,380.839, 411.839,389.071, 401.786,389.071z M 346.929,169.643
		c0.00-26.856-36.965-31.268-42.071-31.268c-15.50,0.00-28.34,7.232-32.036,18.661c-5.054,15.606, 8.429,32.856, 29.357,40.571
		c 11.857,4.321, 26.429,2.821, 26.429,2.66l0.00,80.589 l-109.714-25.036c0.00,0.00,0.00-71.286,0.00-104.446c0.00-33.161-38.429-37.607-44.197-37.607
		c-14.928,0.00-26.339,6.84-29.786,17.446c-4.964,15.25, 8.036,32.375, 29.321,39.769c 11.822,4.107, 26.375,2.50, 26.375,2.393l0.00,120.75 
		c0.00,4.482, 1.322,8.589, 5.322,9.679l 136.982,33.911l-0.715,0.178c 3.982,0.00, 4.696-3.089, 4.696-7.214
		C 346.929,330.696, 346.929,196.50, 346.929,169.643z" />
<glyph unicode="&#xe006;" d="M 84.833,181.834c0.00,5.875, 4.802,10.666, 10.667,10.666l 320.00,0.00 c 5.864,0.00, 10.667-4.791, 10.667-10.666l0.00-42.667 
		c0.00-5.875-4.803-10.667-10.667-10.667l-320.00,0.00 c-5.865,0.00-10.667,4.792-10.667,10.667L 84.833,181.834 z M-0.50,267.167
		c0.00-5.875, 4.802-10.667, 10.667-10.667l 490.667,0.00 c 5.865,0.00, 10.667,4.792, 10.667,10.667l0.00,42.667 c0.00,5.875-4.802,10.667-10.667,10.667
		L 10.167,320.501 c-5.864,0.00-10.667-4.792-10.667-10.667L-0.50,267.167 z M 84.833,395.167c0.00-5.875, 4.802-10.667, 10.667-10.667l 320.00,0.00 
		c 5.864,0.00, 10.667,4.792, 10.667,10.667L 426.167,437.833 c0.00,5.875-4.803,10.667-10.667,10.667l-320.00,0.00 c-5.865,0.00-10.667-4.792-10.667-10.667L 84.833,395.167 z
		 M-0.50,11.167c0.00-5.875, 4.802-10.667, 10.667-10.667l 490.667,0.00 c 5.865,0.00, 10.667,4.792, 10.667,10.667l0.00,42.666 
		c0.00,5.875-4.802,10.667-10.667,10.667L 10.167,64.50 c-5.864,0.00-10.667-4.792-10.667-10.667L-0.50,11.167 z" />
<glyph unicode="&#xe007;" d="M 383.219,139.166c0.00-5.875-4.792-10.666-10.667-10.666L 10.167,128.50 c-5.865,0.00-10.667,4.791-10.667,10.666l0.00,42.667 
		c0.00,5.875, 4.802,10.667, 10.667,10.667l 362.385,0.00 c 5.875,0.00, 10.667-4.792, 10.667-10.667L 383.219,139.166 z M 468.552,309.833
		c0.00,5.875-4.791,10.667-10.666,10.667L 10.167,320.50 c-5.865,0.00-10.667-4.792-10.667-10.667l0.00-42.667 c0.00-5.875, 4.802-10.667, 10.667-10.667
		l 447.719,0.00 c 5.875,0.00, 10.666,4.792, 10.666,10.667L 468.552,309.833 z M 297.886,437.833c0.00,5.875-4.792,10.667-10.667,10.667L 10.167,448.50 
		C 4.302,448.50-0.50,443.708-0.50,437.833l0.00-42.667 c0.00-5.875, 4.802-10.667, 10.667-10.667l 277.052,0.00 c 5.875,0.00, 10.667,4.792, 10.667,10.667L 297.886,437.833 z
		 M 511.50,53.834c0.00,5.875-4.802,10.666-10.666,10.666L 10.167,64.50 c-5.865,0.00-10.667-4.791-10.667-10.666l0.00-42.668 
		c0.00-5.875, 4.802-10.666, 10.667-10.666l 490.667,0.00 c 5.864,0.00, 10.666,4.791, 10.666,10.666L 511.50,53.834 z" />
<glyph unicode="&#xe008;" d="M 127.792,181.833c0.00,5.875, 4.792,10.667, 10.667,10.667l 362.375,0.00 c 5.875,0.00, 10.667-4.792, 10.667-10.667l0.00-42.667 
		c0.00-5.875-4.792-10.666-10.667-10.666L 138.458,128.50 c-5.875,0.00-10.667,4.791-10.667,10.666L 127.791,181.833 z M 42.458,267.167
		c0.00-5.875, 4.792-10.667, 10.667-10.667l 447.708,0.00 c 5.875,0.00, 10.667,4.792, 10.667,10.667l0.00,42.667 c0.00,5.875-4.792,10.667-10.667,10.667
		L 53.125,320.501 c-5.875,0.00-10.667-4.792-10.667-10.667L 42.458,267.167 z M 213.125,395.167c0.00-5.875, 4.792-10.667, 10.667-10.667l 277.042,0.00 
		c 5.875,0.00, 10.667,4.792, 10.667,10.667L 511.501,437.833 c0.00,5.875-4.792,10.667-10.667,10.667L 223.792,448.50 c-5.875,0.00-10.667-4.792-10.667-10.667
		L 213.125,395.167 z M-0.50,11.167c0.00-5.875, 4.792-10.667, 10.667-10.667l 490.667,0.00 c 5.875,0.00, 10.667,4.792, 10.667,10.667l0.00,42.666 
		c0.00,5.875-4.792,10.667-10.667,10.667L 10.167,64.50 c-5.875,0.00-10.667-4.792-10.667-10.667L-0.50,11.167 z" />
<glyph unicode="&#xe00a;" d="M 500.441,158.492l-137.244-19.604c-5.791-0.833-7.166-4.896-3.041-9.062l 36.415-35.957
		c-25.749-27.728-54.706-47.498-97.371-56.206L 299.20,321.36 c 21.332,14.75, 42.206,42.249, 42.206,73.789
		c0.00,47.061-38.561,85.351-85.601,85.351c-47.081,0.00-84.976-38.29-84.976-85.351c0.00-31.54, 21.708-59.039, 43.04-73.789l0.00-283.654 
		c-42.665,8.666-72.622,28.54-98.413,56.372l 35.624,35.874c 4.104,4.104, 2.667,8.208-3.167,9.041L 10.628,158.617
		c-5.813,0.834-9.979-3.25-9.146-9.083l 19.624-137.285c 0.833-5.792, 4.896-7.167, 9.021-3.021l 39.415,39.437
		c 46.707-49.436, 112.829-80.164, 186.013-80.164c 72.872,0.00, 138.641,31.291, 185.306,80.622l 39.998-39.998
		c 4.125-4.146, 8.208-2.833, 9.041,3.021l 19.624,137.286C 510.316,155.242, 506.254,159.326, 500.441,158.492z M 255.556,350.172
		c-24.832,0.00-45.019,20.187-45.019,45.02c0.00,24.832, 20.187,45.019, 45.019,45.019c 24.833,0.00, 45.02-20.187, 45.02-45.019
		C 300.575,370.358, 280.389,350.172, 255.556,350.172z" />
<glyph unicode="&#xe00b;" d="M 498.651,275.62L 379.538,275.62 l 77.242,77.192c 4.975,5.05, 4.975,13.349,0.00,18.373l-54.22,54.17c-5.024,5.024-13.323,5.024-18.323,0.00
		l-77.518-77.467L 306.719,467.651 c0.00,7.049-5.749,12.799-12.799,12.799l-76.792,0.00 c-7.05,0.00-12.799-5.75-12.799-12.799l0.00-119.414 L 127.063,425.48
		c-5.049,5.024-13.349,5.024-18.373,0.00l-54.22-54.22c-5.00-4.975-5.00-13.273,0.00-18.348l 77.292-77.243L 12.299,275.669 
		c-7.049,0.00-12.799-5.749-12.799-12.799l0.00-76.793 c0.00-7.049, 5.75-12.798, 12.799-12.798l 119.763,0.00 L 54.57,95.737c-5.00-4.949-5.00-13.273,0.00-18.323
		l 54.169-54.22c 5.05-4.949, 13.349-4.949, 18.373,0.00l 77.218,77.268l0.00-119.113 c0.00-7.049, 5.749-12.799, 12.799-12.799l 76.792,0.00 
		c 7.05,0.00, 12.799,5.75, 12.799,12.799L 306.72,100.762 l 77.442-77.442c 4.975-4.974, 13.299-4.974, 18.323,0.00l 54.245,54.245
		c 4.949,4.999, 4.949,13.323,0.00,18.323l-77.442,77.442l 119.413,0.00 c 7.05,0.00, 12.799,5.75, 12.799,12.799l0.00,76.792 
		C 511.45,269.871, 505.70,275.62, 498.651,275.62z" />
<glyph unicode="&#xe00c;" d="M 153.282,253.885l0.00-27.167 l-2.029,0.281C 102.761,178.507, 48.199,125.147, 40.984,117.933
			C 13.723,90.652-0.50,49.844-0.50,49.844l 54.129-54.411c0.00,0.00, 13.452,40.827, 40.733,68.052
			c 27.242,27.30, 200.433,199.645, 200.433,199.645l-66.623,68.014L 153.282,253.885zM 320.986,453.567l-95.22-95.22l 102.096-102.095c0.00,0.00, 6.802-51.743, 6.802-88.437C 443.486,140.61, 511.50,263.054, 511.50,263.054
			L 320.986,453.567z M 263.569,347.752l-10.597,10.596l 68.014,68.014l 10.597-10.615L 263.569,347.752z" />
<glyph unicode="&#xe00e;" d="M 255.50,480.50c-141.163,0.00-256.00-114.837-256.00-256.00s 114.837-256.00, 256.00-256.00s 256.00,114.837, 256.00,256.00S 396.663,480.50, 255.50,480.50z M 255.50,412.582
		c 36.898,0.00, 71.245-10.836, 100.326-29.265L 96.704,124.194c-18.469,29.081-29.265,63.428-29.265,100.326
		C 67.418,328.214, 151.786,412.582, 255.50,412.582z M 255.50,36.418c-36.877,0.00-71.225,10.816-100.286,29.245l 259.082,259.082
		c 18.47-29.062, 29.245-63.408, 29.245-100.286C 443.582,120.786, 359.214,36.418, 255.50,36.418z" />
<glyph unicode="&#xe00f;" d="M 511.479-19.149c0.00-5.896-4.791-10.666-10.666-10.666L 10.166-29.815 c-5.874,0.00-10.666,4.771-10.666,10.666l0.00,21.332 
		c0.00,5.896, 4.792,10.667, 10.666,10.667l 490.647,0.00 c 5.875,0.00, 10.666-4.771, 10.666-10.667L 511.479-19.149 z M-0.50,260.631
		c0.00,5.708, 3.792,14.541, 8.417,18.124L 247.073,476.289c 4.646,3.583, 12.208,3.25, 16.833-0.333l 239.157-196.992
		c 4.646-3.583, 8.437-12.645, 8.437-18.291c0.00-5.708-4.812-13.125-10.666-13.125l-53.352,0.00 l0.00-170.659 l 31.998,0.00 
		c 5.875,0.00, 10.667-4.563, 10.667-10.438l0.00-21.332 c0.00-5.833-4.792-10.896-10.667-10.896L 31.499,34.223 c-5.875,0.00-10.666,5.021-10.666,10.896
		l0.00,21.332 c0.00,5.875, 4.791,10.438, 10.666,10.438l 31.999,0.00 L 63.498,247.548 L 10.166,247.548 C 4.292,247.506-0.50,254.964-0.50,260.631z M 148.828,76.847
		l0.00,170.66 l-42.666,0.00 l0.00-170.66 L 148.828,76.847 z M 234.157,76.847l0.00,170.66 l-42.665,0.00 l0.00-170.66 L 234.157,76.847 z M 319.487,76.847l0.00,170.66 l-42.665,0.00 l0.00-170.66 
		L 319.487,76.847 z M 404.817,247.506l-42.665,0.00 l0.00-170.66 l 42.665,0.00 L 404.817,247.506 z" />
<glyph unicode="&#xe010;" d="M-0.50,480.50l 42.667,0.00 l0.00-448.00 L-0.50,32.50 L-0.50,480.50 z M 234.167,480.50l-85.333,0.00 l0.00-448.00 l 85.333,0.00 L 234.167,480.50 z M 298.166,480.50L 255.50,480.50 l0.00-448.00 l 42.666,0.00 
		L 298.166,480.50 z M 383.50,480.50l-42.667,0.00 l0.00-448.00 L 383.50,32.50 L 383.50,480.50 z M 511.50,480.50l-42.667,0.00 l0.00-448.00 L 511.50,32.50 L 511.50,480.50 z M 447.50,480.50l-42.667,0.00 l0.00-448.00 L 447.50,32.50 L 447.50,480.50 z M 63.50,32.50
		l 42.667,0.00 l0.00,448.00 L 63.50,480.50 L 63.50,32.50 z M-0.50-31.50l 64.00,0.00 l0.00,42.667 l-64.00,0.00 L-0.50-31.50 z M 84.833-31.50L 127.50-31.50 l0.00,42.667 L 84.833,11.167 L 84.833-31.50 z M 148.833-31.50L 191.50-31.50 
		l0.00,42.667 l-42.667,0.00 L 148.833-31.50 z M 212.833-31.50L 255.50-31.50 l0.00,42.667 l-42.667,0.00 L 212.833-31.50 z M 276.834-31.50L 319.50-31.50 l0.00,42.667 l-42.666,0.00 L 276.834-31.50 z M 340.833-31.50
		L 383.50-31.50 l0.00,42.667 l-42.667,0.00 L 340.833-31.50 z M 426.167-31.50L 511.50-31.50 l0.00,42.667 l-85.333,0.00 L 426.167-31.50 z" />
<glyph unicode="&#xe011;" d="M 436.427,122.675c 36.494,0.00, 66.071-29.588, 66.071-66.071c0.00-36.484-29.577-66.072-66.071-66.072
		s-66.072,29.588-66.072,66.072C 370.354,93.087, 399.933,122.675, 436.427,122.675zM 500.402,424.56l-44.867,44.867c-7.144,7.165-16.693,11.067-26.893,11.067c-10.189,0.00-19.771-3.944-26.935-11.149
		L 273.415,341.062c-14.483-14.495-50.658-65.679-65.204-94.771c-14.866-29.711-30.238-60.373-45.651-75.859L 38.666,46.527
		l-10.468,10.468c-4.098,4.109-10.84,4.109-14.949,0.00L 2.574,46.30c-4.099-4.067-4.099-10.84,0.00-14.948l 59.794-59.795
		c 4.099-4.067, 10.84-4.067, 14.949,0.00l 10.675,10.675c 4.099,4.088, 4.099,10.86, 0.021,14.948l-10.489,10.448l 123.925,123.925
		c 15.434,15.444, 46.167,30.807, 75.858,45.673c 29.112,14.535, 80.318,50.689, 94.761,65.184l 128.354,128.323
		c 7.175,7.165, 11.077,16.724, 11.077,26.883C 511.50,407.773, 507.577,417.396, 500.402,424.56z M 298.296,305.569
		c-20.669-20.709-65.091-61.777-65.091-61.777c 16.549,28.039, 42.574,63.862, 52.784,74.042L 414.695,446.549l 12.306-12.285
		L 298.296,305.569z" />
<glyph unicode="&#xe012;" d="M 243.615,209.477c 6.646-3.854, 12.243-8.60, 17.146-13.787L 129.585-31.50l-50.82,0.00 l 143.777,249.061
		C 229.724,215.976, 236.822,213.435, 243.615,209.477z M 472.737,78.562c-4.242-7.34-8.82-14.322-13.65-21.073
		c 2.143,37.82-16.17,75.411-51.198,95.623c-27.972,16.17-60.228,17.314-88.315,6.689c-2.11,35.354-21.221,68.964-54.17,87.979
		c-32.645,18.879-70.959,18.879-102.428,3.434c-5.072,29.18-22.124,56.112-49.802,72.083c-35.69,20.622-78.404,17.231-110.292-4.683
		c 3.654,8.169, 7.759,16.212, 12.327,24.129C 84.445,462.643, 233.409,507.52, 356.407,449.465l 11.571,20.044
		c 6.037,10.469, 19.582,14.102, 30.062,8.085c 10.479-6.09, 14.112-19.593, 8.043-30.114l-11.571-20.034
		C 506.338,349.967, 541.954,198.461, 472.737,78.562z M 336.09,415.036c-29.074,13.135-59.997,19.803-91.908,19.803
		c-54.411,0.00-106.859-19.572-147.672-55.094l-5.681-4.924l 7.182-2.257c 46.757-14.795, 64.964-26.324, 87.885-69.668l 3.423-6.479
		l 3.896,6.195C 257.381,405.019, 333.633,407.014, 334.389,407.014L 336.09,415.036z M 374.972,392.628l-6.132-5.502
		c 0.388-0.651, 36.739-67.705-19.846-174.468l-3.423-6.469l 7.308,0.273c 3.634,0.157, 7.099,0.221, 10.427,0.221
		c 41.14,0.00, 60.376-10.879, 93.85-41.528l 5.544-5.05l 1.428,7.371C 480.886,253.282, 445.857,341.661, 374.972,392.628z" />
<glyph unicode="&#xe013;" d="M 488.121,286.252c-12.547,16.52-31.974,24.864-57.088,24.864l-55.876,0.00 l0.00,6.692 c0.00,0.00, 25.261,11.146, 36.344,25.01
		c 6.357,8.72, 11.146,15.14, 8.825,44.583c-2.342,29.444-48.536,55.563-78.461,39.878c-10.874,17.984-24.634,28.44-44.709,32.664
		c-4.224,0.899-8.615,1.317-13.027,1.317c-14.785,0.00-28.754-4.893-40.172-12.003C 228.984,466.176, 204.623,480.50, 169.846,480.50
		c-21.204,0.00-39.272-9.201-50.899-25.931c-5.479-7.842-9.117-16.708-11.417-25.70c-9.16,2.97-19.197,4.538-29.862,4.538
		c-36.721,0.00-66.541-32.372-66.541-72.146c0.00-22.208, 21.414-38.143, 21.414-67.921l0.00-89.292 l0.00-192.722 c0.00-23.63, 17.963-42.827, 41.614-42.827
		l 256.962,0.00 c 23.63,0.00, 44.04,19.197, 44.04,42.827l0.00,42.827 l0.00,2.509 c 42.827,7.152, 89.104,30.614, 110.162,107.235
		C 501.087,221.363, 506.90,261.597, 488.121,286.252z M 139.608,43.489c0.00-11.773-9.64-21.414-21.414-21.414
		c-11.773,0.00-21.413,9.641-21.413,21.414c0.00,0.00,0.00,105.687,0.00,113.718c 28.105,0.00, 42.827,23.463, 42.827,42.492
		C 139.608,185.98, 139.608,43.489, 139.608,43.489z M 225.262,43.489c0.00-11.773-9.641-21.414-21.414-21.414
		c-11.772,0.00-21.413,9.641-21.413,21.414L 182.435,235.207 c0.00,11.961, 1.004,30.949, 8.03,42.785c 5.354,9.034, 34.797,13.049, 34.797,13.049
		L 225.262,43.489 z M 310.916,75.567l0.00-32.078 c0.00-11.773-9.64-21.414-21.413-21.414s-21.413,9.641-21.413,21.414L 268.09,295.725 
		c 20.786,2.509, 42.826,5.688, 42.826,5.688L 310.916,75.567 z M 196.153,326.841c-27.352-4.036-38.143-27.436-39.481-48.557
		c-0.815-12.861-5.019-28.44-15.998-28.44c-12.149,0.00-17.795,9.912-20.347,18.109c-1.84,5.772-2.133-0.292-2.133-0.292l0.00-61.271 
		c0.00-10.246-7.068-21.414-21.434-21.414s-21.393,11.377-21.393,21.748l0.00,78.963 c0.00,47.678-45.838,87.703-0.669,108.74
		c 26.098,10.707, 55.207-19.741, 55.207-19.741s-2.886,63.843, 43.496,65.914c 45.169,2.008, 57.988-30.866, 62.902-54.538
		c 10.707,27.666, 30.803,41.489, 52.217,37.474c 21.058-5.019, 31.765-36.135, 31.765-36.135c 14.742,16.06, 64.24,18.277, 64.24-13.76
		C 384.525,323.935, 213.802,329.435, 196.153,326.841z M 447.135,171.928c-13.593-49.518-50.564-64.867-71.978-71.727l0.00,18.193 L 375.157,268.289 
		l 61.73,0.00 c 14.89,0.00, 20.41-4.559, 23.024-8.009C 464.429,254.362, 463.236,230.543, 447.135,171.928z" />
<glyph unicode="&#xe015;" d="M 198.688,7.983c 8.665-23.015, 30.756-39.483, 56.813-39.483s 48.085,16.469, 56.77,39.463
		c-17.958-1.343-36.881-2.225-56.77-2.225C 235.591,5.738, 216.688,6.62, 198.688,7.983zM 474.817,115.292l-8.056,0.00 l-53.707,64.449L 384.396,330.12l-0.293,0.00 c-8.707,52.638-48.966,94.365-100.68,105.715
		c 0.104,0.21, 0.272,0.44, 0.356,0.608l 7.888,23.665C 295.402,471.332, 288.773,480.50, 276.962,480.50l-42.966,0.00 
		c-11.812,0.00-18.399-9.168-14.707-20.392l 7.889-23.665c 0.084-0.21, 0.252-0.44, 0.356-0.608
		c-51.692-11.35-91.952-53.077-100.68-105.715l-0.252,0.00 L 97.945,179.741l-53.707-64.449l-8.057,0.00 c-11.811,0.00-21.482-9.671-21.482-21.482
		s 9.021-24.944, 20.066-29.182c0.00,0.00, 91.837-35.267, 220.734-35.267c 128.896,0.00, 220.744,35.267, 220.744,35.267
		c 11.035,4.237, 20.057,17.412, 20.057,29.182S 486.629,115.292, 474.817,115.292z M 161.807,321.876l-28.26-157.01l-62.413-71.099
		L 54.309,93.767 l 63.734,76.448l 30.043,155.793c 4.069,24.63, 16.972,46.28, 35.057,62.351l 8.202-10.238
		C 176.282,365.135, 165.184,342.204, 161.807,321.876z" />
<glyph unicode="&#xe016;" d="M 412.009,259.08c-12.34,0.00-24.101-2.365-35.009-6.484l-27.656,46.383l 20.449,55.006c 0.434,1.223, 0.418,2.494, 0.563,3.765
		l 8.704,0.00 c 9.058,0.00, 16.475,7.979, 16.475,17.054c0.00,9.042-7.32,15.38-16.249,13.90l-66.317-10.924c-8.929-1.48-16.249-6.645-16.249-11.213
		c0.00-4.569, 7.417-8.816, 16.475-8.816l 22.878,0.00 l-20.047-49.424L 170.167,308.327 l 9.106,25.259c 4.215,13.868-4.537,24.165-19.773,24.165l-44.034,0.00 
		c-9.106,0.00-16.475-7.369-16.475-16.475c0.00-9.106, 7.369-16.475, 16.475-16.475l 25.564,0.00 l-24.293-67.427
		c-5.808,1.03-11.68,1.673-17.746,1.673c-54.862,0.00-99.491-44.629-99.491-99.491c0.00-54.846, 44.629-99.476, 99.491-99.476
		s 99.491,44.63, 99.491,99.476c0.00,37.181-20.497,69.598-50.759,86.684l 6.098,16.909l 114.743-114.743
		c 3.105-3.089, 7.272-4.826, 11.648-4.826l 33.705,0.00 c 7.69-47.269, 48.684-83.50, 98.092-83.50c 54.861,0.00, 99.491,44.63, 99.491,99.476
		C 511.50,214.418, 466.87,259.08, 412.009,259.08z M 165.533,159.589c0.00-36.698-29.876-66.542-66.542-66.542
		s-66.542,29.876-66.542,66.542c0.00,36.714, 29.876,66.542, 66.542,66.542c 2.14,0.00, 4.151-0.435, 6.242-0.627l-21.735-60.332
		c-3.089-8.559, 1.352-18.002, 9.942-21.043c 1.851-0.676, 3.733-1.014, 5.583-1.014c 6.741,0.00, 13.08,4.167, 15.493,10.892l 21.816,60.621
		C 153.933,202.642, 165.533,182.45, 165.533,159.589z M 348.476,236.073c-17.778-14.817-30.295-35.749-34.397-59.512l-10.28,0.00 
		l 30.793,82.808L 348.476,236.073z M 365.674,207.194l 18.261-30.633l-36.006,0.00 C 351.065,188.371, 357.18,198.925, 365.674,207.194z
		 M 273.632,189.979l-85.446,85.43l 117.221,0.00 L 273.632,189.979z M 412.009,93.047c-31.163,0.00-57.179,21.639-64.386,50.566l 64.386,0.00 
		c 9.106,0.00, 16.475,7.368, 16.475,16.474c0.00,2.559-2.478,10.249-3.362,11.729l-30.762,51.628c 5.695,1.609, 11.504,2.687, 17.649,2.687
		c 36.698,0.00, 66.542-29.844, 66.542-66.542C 478.551,122.907, 448.707,93.047, 412.009,93.047z" />
<glyph unicode="&#xe017;" d="M 429.214,407.357L 328.643,407.357 L 328.643,443.929 c0.00,20.116-16.464,36.571-36.571,36.571l-73.143,0.00 c-20.107,0.00-36.572-16.456-36.572-36.571
		l0.00-36.572 L 81.786,407.357 c-5.036,0.00-9.143-4.116-9.143-9.143l0.00-18.286 c0.00-5.027, 4.107-9.143, 9.143-9.143l 347.428,0.00 c 5.036,0.00, 9.144,4.116, 9.144,9.143
		L 438.358,398.214 C 438.357,403.241, 434.25,407.357, 429.214,407.357z M 219.696,407.357l-0.768,0.00 L 218.928,443.929 l 73.143,0.00 l0.00-36.572 L 219.696,407.357 zM 407.161,352.50l-307.09,0.00 c-7.125,0.00-9.143-3.214-9.143-9.143l0.00-368.893 c0.00,0.00, 2.018-5.964, 9.143-5.964l 307.09,0.00 
		c 7.125,0.00, 12.91,3.214, 12.91,9.143L 420.071,344.946 C 420.071,350.875, 414.286,352.50, 407.161,352.50z M 182.357,32.50
		c0.00-5.045-4.089-9.143-9.143-9.143l-18.286,0.00 c-5.054,0.00-9.143,4.098-9.143,9.143l0.00,256.00 c0.00,5.044, 4.089,9.143, 9.143,9.143l 18.286,0.00 
		c 5.054,0.00, 9.143-4.098, 9.143-9.143L 182.357,32.50 z M 273.785,32.50c0.00-5.026-4.106-9.143-9.143-9.143l-18.286,0.00 
		c-5.036,0.00-9.143,4.116-9.143,9.143l0.00,256.00 c0.00,5.027, 4.107,9.143, 9.143,9.143l 18.286,0.00 c 5.036,0.00, 9.143-4.116, 9.143-9.143L 273.785,32.50 z
		 M 365.215,32.50c0.00-5.045-4.09-9.143-9.144-9.143l-18.286,0.00 c-5.053,0.00-9.143,4.098-9.143,9.143l0.00,256.00 c0.00,5.044, 4.09,9.143, 9.143,9.143
		l 18.286,0.00 c 5.054,0.00, 9.144-4.098, 9.144-9.143L 365.215,32.50 z" />
<glyph unicode="&#xe018;" d="M 319.50-10.167L 511.50-10.167L 511.50-31.50L 319.50-31.50zM-0.50-10.167L 191.50-10.167L 191.50-31.50L-0.50-31.50zM 468.833,224.50l-64.00,192.00L 383.50,416.50 l0.00,64.00 l-85.333-21.333L 298.167,416.50 l-21.334,0.00 L 276.833,437.833 l-42.666,0.00 L 234.167,416.50 l-21.333,0.00 L 212.834,459.167 L 127.50,480.50l0.00-64.00 l-21.333,0.00 
				l-64.00-192.00L-0.50,75.167l0.00-64.00 l 192.00,0.00 l0.00,64.00 L 170.167,224.50l 170.667,0.00 L 319.50,75.167l0.00-64.00 l 192.00,0.00 l0.00,64.00 L 468.833,224.50z M 212.833,267.167L 191.50,267.167 
				L 191.50,373.833 l 21.333,0.00 L 212.833,267.167 z M 319.50,267.167l-21.333,0.00 L 298.167,373.833 L 319.50,373.833 L 319.50,267.167 z" />
<glyph unicode="&#xe019;" d="M 112.601,391.198c0.00-9.872, 7.988-17.86, 17.86-17.86c 9.871,0.00, 17.859,7.988, 17.859,17.86c0.00,0.00,0.00,17.86-17.859,53.581
		C 112.601,409.059, 112.601,391.198, 112.601,391.198z M 184.041,480.50c 17.86-35.721, 17.86-53.581, 17.86-53.581
		c0.00-9.872-7.988-17.86-17.86-17.86s-17.86,7.988-17.86,17.86C 166.181,426.919, 166.181,444.779, 184.041,480.50z M 255.482,444.779
		c 17.86-35.721, 17.86-53.581, 17.86-53.581c0.00-9.872-7.988-17.86-17.86-17.86s-17.86,7.988-17.86,17.86
		C 237.622,391.198, 237.622,409.059, 255.482,444.779z M 326.924,480.50c 17.86-35.721, 17.86-53.581, 17.86-53.581
		c0.00-9.872-7.988-17.86-17.86-17.86s-17.86,7.988-17.86,17.86C 309.063,426.919, 309.063,444.779, 326.924,480.50z M 398.364,391.198
		c0.00-9.872-7.988-17.86-17.859-17.86c-9.872,0.00-17.86,7.988-17.86,17.86c0.00,0.00,0.00,17.86, 17.86,53.581
		C 398.364,409.059, 398.364,391.198, 398.364,391.198zM 77.926,115.062c 10.622-11.965, 10.047-30.802, 14.128-45.436c 14.616,10.273, 33.785,32.459, 53.616,22.762
	c 16.011-7.797, 19.36-30.018, 26.93-44.284c 11.896,12.087, 24.941,35.145, 44.686,32.965c 19.64-1.604, 28.099-26.442, 38.319-39.837
	c 9.732,13.762, 18.819,38.284, 38.372,39.837c 20.284,0.00, 31.621-20.721, 44.65-32.965c 6.803,14.406, 10.953,36.54, 26.668,44.197
	c 20.181,9.889, 38.686-12.925, 53.825-22.692c 3.559,14.547, 3.506,33.523, 13.936,45.366c 14.966,16.971, 38.651,2.163, 54.646-4.866
	l0.00,12.924 l0.00,0.262 l0.00,71.441 l-1.099,0.00 c-4.867,17.773-34.622,34.203-70.343,47.18l0.00,24.262 c0.00,0.00-7.901,15.191-17.86,21.802l0.00,58.569 
	c0.00,4.919-4.012,8.93-8.93,8.93l-17.86,0.00 c-4.919,0.00-8.931-4.011-8.931-8.93l0.00-42.872 c-5.65,1.744-11.528,3.366-17.86,4.814L 344.819,382.303 
	c0.00,4.919-4.011,8.931-8.93,8.931l-17.86,0.00 c-4.919,0.00-8.93-4.012-8.93-8.931l0.00-67.813 c-11.39,1.378-23.303,2.354-35.721,2.825l0.00,29.268 
	c0.00,4.918-4.012,8.93-8.931,8.93l-17.86,0.00 c-4.918,0.00-8.93-4.012-8.93-8.93l0.00-29.268 c-12.419-0.471-24.331-1.447-35.721-2.825L 201.936,382.303 
	c0.00,4.919-4.012,8.931-8.931,8.931l-17.859,0.00 c-4.919,0.00-8.931-4.012-8.931-8.931l0.00-73.813 c-6.313-1.448-12.209-3.07-17.86-4.814l0.00,42.872 
	c0.00,4.919-4.012,8.93-8.93,8.93l-17.86,0.00 c-4.919,0.00-8.931-4.011-8.931-8.93l0.00-54.418 l0.00-4.151 c-9.959-6.61-17.86-21.802-17.86-21.802l0.00-22.047 
	c-40.726-13.29-65.196-30.627-70.324-49.395l-1.151,0.00 l0.00-71.441 l0.00-0.262 c0.00,0.00,0.00-5.284,0.00-12.837
	C 25.863,111.329, 64.967,129.748, 77.926,115.062z M 115.74,268.444c0.00,0.00, 3.558-2.268, 5.79-2.268l 17.86,0.00 c 4.919,0.00, 8.93,4.012, 8.93,8.93
	l0.00,10.047 c 5.494,1.831, 11.669,3.523, 18.401,5.146c 1.116-3.559, 4.413-6.262, 8.39-6.262l 17.86,0.00 c 4.918,0.00, 8.93,4.012, 8.93,8.93l0.00,3.593 
	c 10.971,1.361, 22.813,2.372, 35.721,2.861l0.00-42.175 c0.00-4.918, 4.012-8.93, 8.931-8.93l 17.86,0.00 c 4.918,0.00, 8.93,4.012, 8.93,8.93l0.00,42.175 
	c 12.907-0.489, 24.75-1.50, 35.721-2.861l0.00-21.453 c0.00-4.918, 4.012-8.93, 8.93-8.93l 17.86,0.00 c 4.919,0.00, 8.931,4.012, 8.931,8.93l0.00,15.053 
	c 6.522-1.588, 12.522-3.262, 17.86-5.006l0.00-10.047 c0.00-4.918, 4.011-8.93, 8.93-8.93l 17.86,0.00 c 2.232,0.00, 4.221,0.907, 5.791,2.268
	c 14.546-15.00-43.238-29.965-51.646-31.988c-28.761-6.941-58.517-9.506-88.133-9.506s-59.319,2.599-88.115,9.506
	C 158.995,238.479, 101.158,253.444, 115.74,268.444C 117.31,267.084, 115.74,268.444, 115.74,268.444z M 92.647,212.596l 9.087,0.00 
	c 15.383-13.691, 37.796-20.441, 57.226-25.674c 31.378-8.512, 64.063-12.297, 96.522-12.297s 65.145,3.803, 96.522,12.297
	c 19.43,5.232, 41.843,11.982, 57.226,25.674l 9.088,0.00 c 4.604-2.39, 45.017-19.378, 42.313-27.872c-3.018-9.488-18.332-15.749-26.337-19.465
	c-54.593-25.43-119.493-30.662-178.848-30.662c-59.302,0.00-124.22,5.162-178.847,30.471c-7.953,3.68-23.319,9.872-26.337,19.343
	C 47.578,193.096, 87.973,210.172, 92.647,212.596z M 487.666,79.725l0.00-33.819 c0.00-30.156-43.028-46.186-65.808-53.981
	c-53.005-18.14-110.685-23.424-166.376-23.424c-54.243,0.00-110.127,5.11-161.946,21.959c-23.65,7.691-70.237,23.877-70.237,55.429
	c0.00,0.00,0.00,18.977,0.00,33.837l 1.57,0.472c 11.284,3.488, 21.365,9.959, 32.546,13.691c 5.232-16.325, 3.349-41.04, 19.849-51.261
	c 20.302-12.646, 41.04,12.54, 56.406,22.517c 8.39-14.912, 11.424-39.40, 29.441-46.203c 22.308-8.441, 37.90,19.797, 51.243,32.372
	c 11.094-13.779, 19.692-40.849, 41.059-40.849c 21.122,0.00, 30.139,26.721, 40.865,40.813c 13.396-11.668, 26.041-37.133, 47.232-33.558
	c 20.965,3.559, 25.378,31.796, 33.61,47.389c 3.384-2.04, 13.028-9.627, 13.028-9.627c 13.675-10.744, 35.354-25.971, 49.709-7.326
	c 9.802,12.75, 9.244,30.715, 13.518,45.593C 464.678,90.295, 487.666,79.725, 487.666,79.725z" />
<glyph unicode="&#xe01a;" d="M 400.195,480.50L 99.674,480.50 L 44.022,441.543l0.00-5.565 l0.00-44.521 L 32.891,391.457 c-6.119,0.00-11.13-5.00-11.13-11.13s 5.011-11.13, 11.13-11.13l 11.131,0.00 
		l0.00-22.261 L 32.891,346.936 c-6.119,0.00-11.13-5.00-11.13-11.13s 5.011-11.13, 11.13-11.13l 11.131,0.00 l0.00-22.261 L 32.891,302.415 c-6.119,0.00-11.13-5.00-11.13-11.13
		s 5.011-11.13, 11.13-11.13l 11.131,0.00 l0.00-22.261 L 32.891,257.894 c-6.119,0.00-11.13-5.00-11.13-11.13s 5.011-11.13, 11.13-11.13l 11.131,0.00 l0.00-22.261 L 32.891,213.373 
		c-6.119,0.00-11.13-5.00-11.13-11.13c0.00-6.131, 5.011-11.131, 11.13-11.131l 11.131,0.00 l0.00-22.261 L 32.891,168.851 c-6.119,0.00-11.13-5.00-11.13-11.131
		c0.00-6.13, 5.011-11.13, 11.13-11.13l 11.131,0.00 l0.00-22.261 L 32.891,124.329 c-6.119,0.00-11.13-5.00-11.13-11.131s 5.011-11.13, 11.13-11.13l 11.131,0.00 l0.00-22.261 
		L 32.891,79.807 c-6.119,0.00-11.13-5.00-11.13-11.131s 5.011-11.131, 11.13-11.131l 11.131,0.00 l0.00-22.261 L 32.891,35.284 c-6.119,0.00-11.13-5.00-11.13-11.13
		c0.00-6.131, 5.011-11.131, 11.13-11.131l 11.131,0.00 L 44.022-31.50 l 333.913,0.00 c 36.739,0.00, 66.783,30.043, 66.783,66.782L 444.718,369.196 
		c0.00,36.739-30.044,66.782-66.783,66.782L 82.63,435.978 l 30.957,22.261c0.00,0.00, 279.892,0.00, 286.608,0.00c 39.652,0.00, 66.783-27.131, 66.783-66.783
		c0.00-22.261,0.00-333.914,0.00-333.914l 22.261,44.522c0.00,0.00,0.00,244.869,0.00,289.391C 489.239,445.717, 455.848,480.50, 400.195,480.50z M 177.587,413.717
		l0.00-422.957 L 66.283-9.24 l0.00,22.261 l 11.13,0.00 c 6.13,0.00, 11.13,5.00, 11.13,11.131c0.00,6.13-5.00,11.13-11.13,11.13l-11.13,0.00 l0.00,22.261 l 11.13,0.00 
		c 6.13,0.00, 11.13,5.00, 11.13,11.131s-5.00,11.131-11.13,11.131l-11.13,0.00 l0.00,22.261 l 11.13,0.00 c 6.13,0.00, 11.13,4.999, 11.13,11.13s-5.00,11.131-11.13,11.131
		l-11.13,0.00 l0.00,22.261 l 11.13,0.00 c 6.13,0.00, 11.13,5.00, 11.13,11.13c0.00,6.131-5.00,11.131-11.13,11.131l-11.13,0.00 l0.00,22.261 l 11.13,0.00 
		c 6.13,0.00, 11.13,5.00, 11.13,11.131c0.00,6.13-5.00,11.13-11.13,11.13l-11.13,0.00 L 66.283,235.63 l 11.13,0.00 c 6.13,0.00, 11.13,5.00, 11.13,11.13s-5.00,11.13-11.13,11.13
		l-11.13,0.00 l0.00,22.261 l 11.13,0.00 c 6.13,0.00, 11.13,5.00, 11.13,11.13s-5.00,11.13-11.13,11.13l-11.13,0.00 l0.00,22.261 l 11.13,0.00 c 6.13,0.00, 11.13,5.00, 11.13,11.13
		s-5.00,11.13-11.13,11.13l-11.13,0.00 l0.00,22.261 l 11.13,0.00 c 6.13,0.00, 11.13,5.00, 11.13,11.13s-5.00,11.13-11.13,11.13l-11.13,0.00 L 66.283,413.717 L 177.587,413.717 z" />
<glyph unicode="&#xe01c;" d="M 399.955,325.186L 217.84,480.50l0.00-179.245 l-65.225,63.736l-36.64-37.511l 101.864-99.526l0.00-4.251 L 111.045,121.69
		l 36.257-37.894l 70.538,67.435L 217.84-31.50 L 399.70,123.624L 295.455,225.446L 399.955,325.186z M 270.292,366.883l 51.474-43.93l-51.474-49.199
		L 270.292,366.883 z M 322.00,126.132l-51.708-44.12l0.00,94.681 L 322.00,126.132z" />
<glyph unicode="&#xe01d;" d="M 427.892,360.907l-48.899,20.939c-0.125,0.313-33.44,67.755-33.44,67.755c-2.604,5.271-9.501,9.563-15.397,9.563l-32.002,0.00 
		L 298.154,469.833 c0.00,5.875-4.792,10.667-10.668,10.667l-64.005,0.00 c-5.876,0.00-10.668-4.792-10.668-10.667l0.00-10.667 l-32.002,0.00 
		c-5.875,0.00-12.813-4.292-15.439-9.542c0.00,0.00-33.44-67.297-33.607-67.86l-48.712-20.897c-10.772-4.604-19.606-18.001-19.606-29.731
		l0.00-79.819 l 192.016,79.819l 192.016-79.819l0.00,79.84 C 447.497,342.885, 438.663,356.282, 427.892,360.907z M 84.801,283.317l0.00,47.837 
		c0.00,3.188, 3.729,8.855, 6.667,10.105l 110.134,47.233c 1.688,0.708, 27.419,6.021, 32.544,6.438l0.00-42.441 c0.00-2.313, 0.646-4.459, 1.334-6.542
		L 84.801,283.317z M 426.162,283.317l-150.679,62.671c 0.667,2.083, 1.333,4.209, 1.333,6.542L 276.816,394.847 
		c 3.896-0.354, 31.503-5.896, 32.565-6.334l 110.113-47.233c 2.938-1.271, 6.646-6.896, 6.646-10.126L 426.162,283.317L 426.162,283.317zM 484.625,199.644l-209.434,87.07c-10.834,4.50-28.585,4.50-39.42,0.00l-209.433-87.07c-10.834-4.50-14.793-16.438-8.834-26.544
		l 120.468-186.244c 5.959-10.146, 10.876-18.355, 32.211-18.355s 85.34,84.902, 85.34,84.902s 64.005-84.902, 85.341-84.902
		c 21.335,0.00, 26.23,8.251, 32.211,18.355L 493.543,173.10C 499.439,183.184, 495.46,195.144, 484.625,199.644z M 170.142-3.102
		L 37.797,182.476l 18.335-0.667L 173.10,32.797l 67.713,39.378L 170.142-3.102z" />
<glyph unicode="&#xe01e;" d="M 333.453,235.167c0.00,0.00, 95.146,26.875, 95.146,110.083C 428.60,428.667, 353.078,480.50, 289.078,480.50L 55.266,480.50 L 55.266,450.00 
		c 42.667-10.083, 42.667-16.646, 42.667-48.854l0.00-353.063 c0.00-24.166-21.333-38.188-42.667-41.604L 55.266-31.50 l 232.959,0.00 
		c 66.135,0.00, 167.51,38.625, 167.51,130.563C 455.714,205.729, 333.453,235.167, 333.453,235.167z M 204.599,416.50c0.00,0.00, 20.479,0.00, 63.146,0.00
		s 55.489-37.542, 55.489-74.667c0.00-36.875-12.822-74.667-55.489-74.667s-63.146,0.00-63.146,0.00L 204.599,416.50 z M 268.391,32.50l-63.792,0.00 L 204.599,203.166 
		c0.00,0.00, 9.177,0.00, 63.146,0.00c 53.979,0.00, 78.292-42.563, 78.292-92.688C 346.037,60.562, 315.745,32.50, 268.391,32.50z" />
<glyph unicode="&#xe01f;" d="M 511.50,382.023l-51.268,15.096l 25.614,46.901l-46.921-25.652L 423.85,469.654l-15.077-51.286L 361.89,444.021l 25.614-46.901
		l-51.286-15.096l 34.037-9.98c-10.73-4.48-24.769-8.192-37.537-4.597c-12.23,3.462-21.922,13.327-28.807,29.307
		c-15.769,36.826-50.459,56.71-84.381,49.729c-31.999-6.558-52.652-35.922-52.652-75.305l-49.21,0.00 l0.00-47.691 
		C 58.594,299.142-0.50,233.683-0.50,156.57c0.00-97.92, 79.362-177.225, 177.243-177.225S 353.967,58.65, 353.967,156.57
		c0.00,77.112-39.383,142.533-118.149,166.916l0.00,47.691 l-49.229,0.00 c0.00,39.383, 19.076,52.363, 36.922,56.017
		c 20.807,4.23, 48.19-5.692, 62.344-38.71c 9.308-21.729, 23.307-35.152, 41.575-40.268c 5.423-1.538, 10.961-2.038, 16.384-2.038
		c 14.00,0.00, 27.23,4.423, 37.307,8.903l-19.191-35.057l 46.883,25.614l 15.076-51.268l 15.038,51.287l 46.96-25.614l-25.653,46.901
		L 511.50,382.023z M 137.36,351.485l 9.846,0.00 l0.00-19.691 l-9.846,0.00 L 137.36,351.485 z" />
<glyph unicode="&#xe020;" d="M 404.833,480.50L 95.50,480.50 l-74.667-80.00l0.00-432.00 l 320.00,0.00 c 35.209,0.00, 64.00,28.792, 64.00,64.00L 404.833,331.167 c0.00,35.208-28.791,64.00-64.00,64.00L 79.156,395.167 l 42.666,42.667
		c0.00,0.00, 240.345,0.00, 261.678,0.00c 42.667,0.00, 64.00-21.333, 64.00-64.00c0.00-21.333,0.00-341.333,0.00-341.333l 42.667,42.666l0.00,320.00 
		C 490.167,437.833, 447.50,480.50, 404.833,480.50z" />
<glyph unicode="&#xe021;" d="M 490.167,399.458L 490.167,427.687 c0.00,0.00-48.896,28.292-122.459,28.292c-73.552,0.00-112.208-26.667-112.208-26.667
		s-38.656,26.667-112.208,26.667c-73.563,0.00-122.458-28.292-122.458-28.292l0.00-28.229 L-0.50,388.125l0.00-0.438 L-0.50,53.00 
		c0.00,0.00, 96.667,33.667, 149.333,33.667c 52.667,0.00, 106.667-18.875, 106.667-18.875s 54.021,18.875, 106.667,18.875
		c 6.531,0.00, 13.719-0.521, 21.333-1.417l0.00-92.229 l 32.667,43.00l 31.333-43.00l0.00,79.354 c 42.667-9.208, 64.00-19.333, 64.00-19.333L 511.50,387.687 l0.00,0.458 
		L 490.167,399.458z M 234.167,138.542c-21.333,6.229-55.125,14.479-84.906,14.479c-47.917,0.00-64.427-8.584-85.76-14.875L 63.501,403.042 
		c0.00,0.00, 24.00,14.896, 85.76,14.896c 36.136,0.00, 63.573-8.917, 84.906-24.042L 234.167,138.542 z M 447.50,138.104
		c-21.333,6.292-37.823,14.917-85.761,14.917c-29.781,0.00-63.594-8.292-84.905-14.521L 276.834,393.875 c 21.333,15.125, 48.771,24.00, 84.905,24.00
		C 423.50,417.875, 447.50,403.00, 447.50,403.00L 447.50,138.104 z" />
<glyph unicode="&#xe022;" d="M 407.102,480.50L 103.898,480.50 c-5.954,0.00-10.829-4.875-10.829-10.829L 93.069-25.74 c0.00-5.943, 6.06-7.637, 10.289-3.428L 256.821,106.91
		l 149.614-133.666c 4.198-4.209, 11.495-3.385, 11.495,6.43L 417.93,469.671 C 417.931,475.625, 413.056,480.50, 407.102,480.50z" />
<glyph unicode="&#xe023;" d="M 255.50,480.50c-141.378,0.00-256.00-114.622-256.00-256.00s 114.622-256.00, 256.00-256.00s 256.00,114.622, 256.00,256.00S 396.878,480.50, 255.50,480.50z
		 M 289.634,263.189c-22.578,0.00-40.956,18.377-40.956,40.956c0.00,22.578, 18.378,40.956, 40.956,40.956
		c 22.577,0.00, 40.955-18.378, 40.955-40.956C 330.589,281.566, 312.211,263.189, 289.634,263.189z M 316.944,372.411
		c0.00,22.578, 18.378,40.956, 40.956,40.956c 22.577,0.00, 40.955-18.378, 40.955-40.956s-18.378-40.956-40.955-40.956
		C 335.322,331.456, 316.944,349.833, 316.944,372.411z M 426.167,217.678c-22.578,0.00-40.956,18.378-40.956,40.956
		s 18.378,40.956, 40.956,40.956c 22.577,0.00, 40.955-18.378, 40.955-40.956S 448.744,217.678, 426.167,217.678z" />
<glyph unicode="&#xe024;" d="M 468.833,363.167l-64.00,0.00 L 404.833,384.50 l-42.666,0.00 c0.00,35.292-28.709,64.00-64.00,64.00l-85.334,0.00 c-35.291,0.00-64.00-28.708-64.00-64.00l-42.667,0.00 l0.00-21.333 l-64.00,0.00 
			C 18.708,363.167-0.50,343.958-0.50,320.50l0.00-96.00 l 74.667-53.333l 138.667,0.00 L 212.834,202.75 l 85.334,0.00 l0.00-31.583 l 138.666,0.00 L 511.50,224.50l0.00,96.00 
			C 511.50,343.958, 492.292,363.167, 468.833,363.167z M 212.833,405.833l 85.334,0.00 c 11.75,0.00, 21.333-9.563, 21.333-21.333l0.00-21.333 l-128.00,0.00 L 191.50,384.50 
			C 191.50,396.271, 201.083,405.833, 212.833,405.833zM 298.167,149.834L 298.167,128.50 l-85.334,0.00 l0.00,21.334 l-148.00,0.00 L-0.50,192.50l0.00-149.333 c0.00-23.459, 19.208-42.667, 42.667-42.667l 426.667,0.00 
			c 23.459,0.00, 42.667,19.208, 42.667,42.667L 511.501,192.50 l-64.00-42.666L 298.167,149.834 z" />
<glyph unicode="&#xe025;" d="M 255.49,352.646c-70.644,0.00-128.146-57.503-128.146-128.146c0.00-70.643, 57.503-128.146, 128.146-128.146
		c 70.643,0.00, 128.146,57.503, 128.146,128.146C 383.636,295.143, 326.133,352.646, 255.49,352.646z M 255.49,140.926
		c-46.095,0.00-83.575,37.48-83.575,83.574c0.00,46.094, 37.48,83.575, 83.575,83.575c 46.094,0.00, 83.574-37.48, 83.574-83.575
		C 339.064,178.406, 301.584,140.926, 255.49,140.926z M 80.624,203.143L 0.658,203.143 c-0.584,7.05-1.127,14.141-1.127,21.357
		s 0.501,14.308, 1.127,21.358l 79.966,0.00 c-0.834-7.008-1.397-14.121-1.397-21.358S 79.748,210.15, 80.624,203.143z M 147.012,85.821
		l-56.543-56.544c-10.93,9.219-20.982,19.272-30.201,30.201l 56.543,56.544C 125.634,104.78, 135.771,94.644, 147.012,85.821z
		 M 116.811,332.978L 60.268,389.521c 9.219,10.929, 19.271,20.982, 30.201,30.201l 56.543-56.544
		C 135.771,354.356, 125.634,344.22, 116.811,332.978z M 430.355,245.858l 79.987,0.00 c 0.584-7.05, 1.126-14.141, 1.126-21.358
		s-0.50-14.308-1.126-21.357l-79.987,0.00 c 0.855,7.008, 1.419,14.12, 1.419,21.357S 431.232,238.85, 430.355,245.858z M 276.848,49.634l0.00-80.008 
		c-7.05-0.584-14.142-1.126-21.357-1.126c-7.217,0.00-14.309,0.501-21.358,1.126l0.00,80.008 c 7.008-0.876, 14.12-1.438, 21.358-1.438
		C 262.728,48.195, 269.84,48.758, 276.848,49.634z M 450.754,389.563l-56.543-56.543c-8.823,11.242-18.959,21.378-30.201,30.201
		l 56.543,56.543C 431.44,410.545, 441.535,400.451, 450.754,389.563z M 394.169,116.022l 56.544-56.544
		c-9.22-10.929-19.272-20.982-30.181-30.201l-56.564,56.544C 375.21,94.644, 385.347,104.78, 394.169,116.022z M 276.848,479.374l0.00-79.966 
		c-7.008,0.876-14.12,1.397-21.357,1.397c-7.238,0.00-14.351-0.521-21.358-1.397L 234.133,479.374 c 7.05,0.584, 14.142,1.126, 21.358,1.126
		C 262.706,480.50, 269.798,479.958, 276.848,479.374z" />
<glyph unicode="&#xe026;" d="M 73.309,224.50c0.00,8.719, 0.776,17.237, 1.979,25.655L 0.828,250.155 c-0.852-8.443-1.303-16.986-1.303-25.655s 0.451-17.212, 1.303-25.655
		l 74.46,0.00 C 74.136,207.263, 73.309,215.781, 73.309,224.50zM 281.154-30.173l0.00,74.461 c-8.418-1.203-16.936-1.979-25.654-1.979s-17.237,0.776-25.654,1.979l0.00-74.461 
		c 8.442-0.852, 16.985-1.327, 25.654-1.327C 264.168-31.50, 272.712-31.024, 281.154-30.173zM 400.988,333.71l 52.637,52.638c-10.873,13.304-22.974,25.405-36.277,36.278l-52.638-52.639
		C 378.439,359.641, 390.641,347.439, 400.988,333.71zM 510.173,250.155l-74.461,0.00 c 1.203-8.418, 1.979-16.937, 1.979-25.655s-0.776-17.237-1.979-25.655l 74.461,0.00 
		c 0.852,8.443, 1.302,16.986, 1.302,25.655S 511.024,241.712, 510.173,250.155zM 255.50,406.691c 8.719,0.00, 17.236-0.776, 25.654-1.979L 281.154,479.172 C 272.712,480.024, 264.168,480.50, 255.50,480.50
		c-8.669,0.00-17.212-0.476-25.654-1.328l0.00-74.46 C 238.263,405.865, 246.781,406.691, 255.50,406.691zM 400.988,115.29c-10.348-13.729-22.549-25.931-36.278-36.277l 52.638-52.638c 13.304,10.873, 25.404,22.974, 36.277,36.277
		L 400.988,115.29zM 110.013,115.29l-52.639-52.638c 10.874-13.304, 22.975-25.404, 36.278-36.277l 52.639,52.638
		C 132.561,89.359, 120.359,101.561, 110.013,115.29zM 110.013,333.71c 10.347,13.729, 22.548,25.931, 36.278,36.277L 93.652,422.626C 80.349,411.753, 68.248,399.651, 57.374,386.348
		L 110.013,333.71zM 255.50,122.205c-56.421,0.00-102.295,45.874-102.295,102.295S 199.079,326.795, 255.50,326.795S 357.795,280.921, 357.795,224.50
		S 311.921,122.205, 255.50,122.205z M 255.50,274.658c-27.634,0.00-50.133-22.499-50.133-50.158c0.00-27.634, 22.499-50.133, 50.133-50.133
		c 27.659,0.00, 50.133,22.499, 50.133,50.133C 305.633,252.159, 283.159,274.658, 255.50,274.658z" />
<glyph unicode="&#xe027;" d="M 508.897,435.873c-0.365-0.364-180.485-234.262-198.253-256.413c-17.767-22.131-34.704-36.304-39.928-40.171
		c-5.233-3.887-59.092-35.089-59.092-35.089c-4.009-1.741-6.904,0.203-7.694,3.261c-2.389,9.313-6.763,17.534-13.556,24.297
		c-6.935,6.884-15.429,10.933-24.945,13.545c-4.434,1.215-5.416,4.13-3.401,7.572c0.00,0.00, 29.146,53.534, 33.398,58.98
		c 4.211,5.427, 23.70,24.601, 42.034,41.001c 18.324,16.40, 247.828,193.625, 252.322,196.987c 5.872,4.455, 13.89,5.507, 18.021,1.377
		C 511.935,447.089, 513.027,441.704, 508.897,435.873z M 126.637,124.488c-15.631-0.081-43.42-8.423-56.916-44.18
		c-9.385-24.844-21.067-57.118-66.695-72.526c-2.298-0.789-3.816-3.098-3.482-5.567c 0.283-2.43, 2.257-4.333, 4.708-4.536
		c 19.589-1.721, 36.658-2.551, 51.995-2.49c 44.949,0.122, 77.831,7.492, 100.599,22.495c 8.028,5.365, 16.36,14.72, 16.36,14.72
		c 17.767,23.265, 15.631,56.308-5.021,76.818C 157.079,120.277, 142.248,124.529, 126.637,124.488z" />
<glyph unicode="&#xe028;" d="M 495.159,12.074c0.00-12.042-9.766-21.787-21.787-21.787l-52.596,0.00 l-43.574,43.574l-23.447,0.00 
		C 334.521-3.074, 304.00-31.50, 255.50-31.50s-79.021,28.426-98.255,65.361l-23.447,0.00 l-43.574-43.574L 37.628-9.713 
		c-12.021,0.00-21.787,9.745-21.787,21.787c0.00,12.043, 9.766,21.787, 21.787,21.787l 34.553,0.00 l 43.575,43.574l 24.404,0.00 
		c-6.564,22.596-10.373,45.49-12.554,65.362L 70.702,142.797 L 22.787,191.50c-8.425,8.574-8.318,22.318, 0.267,30.787
		c 8.585,8.426, 22.372,8.34, 30.809-0.276l 35.096-35.681l 35.818,0.00 c-0.17,8.766,0.00,14.00,0.00,14.00c0.00,16.51, 2.33,31.915, 6.511,46.085
		c-1.17,0.766-2.457,1.276-3.50,2.276l-46.585,44.511l0.00,76.681 L 62.819,388.925c-8.351,8.66-8.106,22.447, 0.543,30.809
		c 8.648,8.34, 22.457,8.106, 30.809-0.553l 30.585-31.723l0.00-75.617 l 25.925-24.766c 23.884,34.298, 61.969,54.915, 104.798,54.915
		c 42.288,0.00, 79.958-20.106, 103.904-53.638l 26.819,23.979L 386.202,387.138 l 28.755,31.617c 8.106,8.872, 21.904,9.532, 30.788,1.447
		c 8.914-8.085, 9.542-21.915, 1.457-30.766l-17.404-19.191l0.00-77.511 l-49.937-44.553c-0.17-0.17-0.414-0.213-0.606-0.362
		c 4.458-14.596, 6.969-30.467, 6.969-47.51c0.00,0.00, 0.17-5.213,0.00-14.00l 34.553,0.00 l 35.819,35.83c 8.521,8.531, 22.287,8.531, 30.809,0.00
		c 8.521-8.532, 8.521-22.277,0.00-30.787l-48.585-48.575l-55.426,0.00 c-2.202-19.872-5.989-42.766-12.553-65.361l 24.404,0.00 l 43.574-43.575l 34.553,0.00 
		C 485.394,33.861, 495.159,24.117, 495.159,12.074z M 320.861,355.266l0.00,5.213 c0.00,19.553-9.063,37.064-22.893,49.064l 20.063,22.021
		c 1.829,2.00, 2.829,4.617, 2.829,7.341L 320.86,469.606 c0.00,6.021-4.883,10.894-10.894,10.894s-10.893-4.873-10.893-10.894l0.00-26.49 l-19.979-21.936
		c-7.361,2.915-15.298,4.66-23.596,4.66s-16.213-1.745-23.596-4.66l-19.979,21.936l0.00,26.49 c0.00,6.021-4.883,10.894-10.894,10.894
		s-10.894-4.873-10.894-10.894l0.00-30.702 c0.00-2.724, 1.00-5.341, 2.83-7.341l 20.063-22.021c-13.83-12.021-22.894-29.511-22.894-49.064l0.00-5.213 
		c 19.979,9.575, 42.053,15.021, 65.361,15.021S 300.883,364.84, 320.861,355.266z" />
<glyph unicode="&#xe029;" d="M 452.423,421.423L 58.577,421.423 l 39.385,39.384l 98.461,0.00 L 216.115,480.50l 78.77,0.00 l 19.691-19.692l 98.462,0.00 L 452.423,421.423z M 491.808-11.808
		L 491.808-31.50 L 294.885-31.50 l0.00,59.077 l-78.77,0.00 L 216.115-31.50 L 19.192-31.50 l0.00,19.692 l 19.692,0.00 l0.00,19.692 l 19.692,0.00 L 58.576,401.731 l 393.846,0.00 l0.00-393.846 l 19.692,0.00 l0.00-19.692 L 491.808-11.807 z
		 M 196.423,106.346l-78.769,0.00 l0.00-39.385 l 78.769,0.00 L 196.423,106.346 z M 196.423,185.115l-78.769,0.00 l0.00-39.385 l 78.769,0.00 L 196.423,185.115 z M 196.423,263.885l-78.769,0.00 
		L 117.654,224.50 l 78.769,0.00 L 196.423,263.885 z M 196.423,342.654l-78.769,0.00 l0.00-39.384 l 78.769,0.00 L 196.423,342.654 z M 294.885,106.346l-78.77,0.00 l0.00-39.385 l 78.77,0.00 L 294.885,106.346 z
		 M 294.885,185.115l-78.77,0.00 l0.00-39.385 l 78.77,0.00 L 294.885,185.115 z M 294.885,263.885l-78.77,0.00 L 216.115,224.50 l 78.77,0.00 L 294.885,263.885 z M 294.885,342.654l-78.77,0.00 l0.00-39.384 
		l 78.77,0.00 L 294.885,342.654 z M 393.346,106.346l-78.77,0.00 l0.00-39.385 l 78.77,0.00 L 393.346,106.346 z M 393.346,185.115l-78.77,0.00 l0.00-39.385 l 78.77,0.00 L 393.346,185.115 z M 393.346,263.885
		l-78.77,0.00 L 314.576,224.50 l 78.77,0.00 L 393.346,263.885 z M 393.346,342.654l-78.77,0.00 l0.00-39.384 l 78.77,0.00 L 393.346,342.654 z" />
<glyph unicode="&#xe02a;" d="M 38.848,155.633L 19.172,155.633 L 19.172,293.367 l 19.676,0.00 L 38.848,155.633 z M 58.524,450.779L 38.848,450.779 l0.00-137.735 l 19.677,0.00 L 58.525,450.779 z M-0.505-1.779l 19.677,0.00 
				L 19.172,135.956 L-0.505,135.956 L-0.505-1.779 z M 235.612,135.956l 19.676-19.676l0.00-98.383 l-19.676-19.677L 38.848-1.78 L 38.848,135.956 L 235.612,135.956 z M 235.612,116.28L 58.524,116.28 
				l0.00-9.839 l 177.088,0.00 L 235.612,116.28 z M 333.994,332.721l-19.677,0.00 L 314.317,431.103 l 19.677,0.00 l 39.353,0.00 l 138.158-49.191l-138.158-49.19L 333.994,332.722 z M 333.994,401.588
				l 39.353,0.00 l0.00,9.838 l-39.353,0.00 L 333.994,401.588 z M 274.965,313.044L 78.201,313.044 L 78.201,450.779 l 196.764,0.00 l 19.676-19.677l0.00-98.382 L 274.965,313.044z M 97.877,421.265
				l 177.088,0.00 l0.00,9.838 L 97.877,431.103 L 97.877,421.265 z M 333.994,116.28l 138.157-49.191l-138.157-49.191l-39.354,0.00 l-19.676,0.00 L 274.964,116.28 l 19.676,0.00 L 333.994,116.28 z
				 M 333.994,96.604l-39.354,0.00 l0.00-9.838 l 39.354,0.00 L 333.994,96.604 z M 353.67,273.691L 491.828,224.50L 353.67,175.31l-39.353,0.00 l-19.677,0.00 l0.00,98.382 l 19.677,0.00 
				L 353.67,273.692 z M 353.67,254.015l-39.353,0.00 l0.00-9.838 l 39.353,0.00 L 353.67,254.015 z M 274.965,175.31l-19.677-19.677L 58.524,155.633 L 58.524,293.367 l 196.764,0.00 l 19.677-19.676
				L 274.965,175.31 z M 255.288,273.691L 78.201,273.691 l0.00-9.839 l 177.087,0.00 L 255.288,273.691 z" />
<glyph unicode="&#xe02b;" d="M 491.02,429.30c-11.26,0.00-20.479-9.22-20.479-20.479l0.00-348.16 c0.00-11.26, 9.22-20.48, 20.479-20.48
		c 11.261,0.00, 20.48,9.221, 20.48,20.48L 511.50,408.82 C 511.50,420.08, 502.28,429.30, 491.02,429.30zM-0.50,244.98l0.00-20.48 c0.00-22.60, 18.36-40.96, 40.96-40.96l0.00,102.40 C 17.86,285.94-0.50,267.58-0.50,244.98zM 81.42,306.42c-11.26,0.00-20.48-9.22-20.48-20.479l0.00-102.40 c0.00-5.86, 2.56-11.08, 6.52-14.80l 23.88-128.90
		c 2.04-11.08, 12.94-20.14, 24.20-20.14l 34.16,0.00 c 11.26,0.00, 19.06,9.10, 17.34,20.24L 147.90,163.06l 15.44,0.00 L 450.06,60.66L 450.06,408.82 l-286.72-102.40
		L 81.42,306.42 z M 429.58,379.76l0.00-16.06 L 166.90,269.88L 166.90,285.94 L 429.58,379.76z" />
<glyph unicode="&#xe02c;" d="M 480.23,153.907c-14.521,11.604-34.374,27.479-71.227,27.479c-36.832,0.00-56.686-15.874-71.205-27.479
		c-11.208-8.979-16.833-13.479-31.249-13.479c-14.396,0.00-20.021,4.50-31.249,13.479c-14.499,11.583-34.332,27.479-71.185,27.479
		c-36.811,0.00-56.644-15.896-71.164-27.499c-11.187-8.958-16.812-13.458-31.144-13.458c-14.333,0.00-19.958,4.50-31.145,13.458
		C 56.144,165.49, 36.311,181.386-0.50,181.386l0.00-63.997 c 14.354,0.00, 19.979-4.50, 31.165-13.458c 14.521-11.604, 34.312-27.499, 71.144-27.499
		c 36.831,0.00, 56.643,15.896, 71.143,27.499c 11.187,8.958, 16.812,13.458, 31.165,13.458c 14.396,0.00, 20.021-4.50, 31.228-13.479
		c 14.50-11.583, 34.354-27.479, 71.206-27.479s 56.706,15.896, 71.205,27.479c 11.229,8.979, 16.874,13.479, 31.249,13.479
		c 14.416,0.00, 20.02-4.50, 31.27-13.479c 14.499-11.583, 34.353-27.479, 71.227-27.479l0.00,63.997 
		C 497.084,140.429, 491.459,144.929, 480.23,153.907zM 409.004,74.724c-36.832,0.00-56.686-15.875-71.205-27.479c-11.208-8.979-16.833-13.479-31.249-13.479
		c-14.396,0.00-20.021,4.50-31.249,13.479c-14.499,11.583-34.332,27.479-71.185,27.479c-36.811,0.00-56.644-15.896-71.164-27.499
		c-11.187-8.958-16.812-13.458-31.144-13.458c-14.333,0.00-19.958,4.50-31.145,13.458C 56.144,58.828, 36.311,74.724-0.50,74.724l0.00-63.998 
		c 14.354,0.00, 19.979-4.50, 31.165-13.458c 14.521-11.604, 34.312-27.498, 71.144-27.498c 36.831,0.00, 56.643,15.895, 71.143,27.498
		c 11.187,8.958, 16.812,13.458, 31.165,13.458c 14.396,0.00, 20.021-4.50, 31.228-13.479c 14.50-11.583, 34.354-27.478, 71.206-27.478
		s 56.706,15.895, 71.205,27.478c 11.229,8.979, 16.874,13.479, 31.249,13.479c 14.416,0.00, 20.02-4.50, 31.27-13.479
		c 14.499-11.583, 34.353-27.478, 71.227-27.478l0.00,63.997 c-14.416,0.00-20.041,4.50-31.27,13.479
		C 465.71,58.849, 445.856,74.724, 409.004,74.724zM 295.217,178.928c 3.291-2.625, 5.958-6.021, 11.958-6.021c 6.021,0.00, 7.458,3.416, 10.646,5.979
		c 5.937,4.813, 13.395,10.688, 22.77,16.333c-1.125,48.31-37.915,87.371-85.08,92.663L 255.511,448.958 c0.00,5.854-4.791,10.646-10.646,10.646
		l-0.041,0.00 c-5.854,0.00-10.646-4.792-10.646-10.646l0.00-161.035 c-44.79-5.021-80.018-40.665-84.393-85.768
		c 14.271,6.396, 31.937,11.146, 54.352,11.146C 252.114,213.301, 279.093,191.802, 295.217,178.928zM 276.843,459.562l0.00-106.662 c0.00,0.00, 135.286,115.829, 139.474,119.579c 4.187,3.729, 2.646,7.50-2.75,6.625
		S 276.843,459.562, 276.843,459.562z" />
<glyph unicode="&#xe02d;" d="M 433.195,389.109l-10.547,21.07c-3.93,7.891-14.352,14.32-23.148,14.32l-288.00,0.00 c-8.797,0.00-19.219-6.43-23.148-14.32
		L 77.727,388.914C 47.133,377.859-0.50,358.422-0.50,344.50c0.00-20.50,0.00-64.00,0.00-64.00c0.00-8.797, 8.273-16.00, 17.055-16.00l 16.00,0.00 
		c 8.805,0.00, 14.945,7.203, 14.945,16.00c0.00,0.00,0.00,52.258,0.00,64.00c0.00,3.859, 6.867,8.852, 16.00,13.805l0.00-157.789 L 63.50,32.50 c0.00-4.398, 3.602-8.00, 8.00-8.00l 32.00,0.00 
		c 4.398,0.00, 8.00,3.602, 8.00,8.00l0.00,24.00 l 288.00,0.00 l0.00-24.00 c0.00-4.398, 3.602-8.00, 8.00-8.00l 32.00,0.00 c 4.398,0.00, 8.00,3.602, 8.00,8.00L 447.50,200.516 L 447.50,358.344 c 9.133-4.977, 16.00-9.984, 16.00-13.844
		c0.00-11.742,0.00-64.00,0.00-64.00c0.00-8.797, 7.203-16.00, 16.00-16.00l 16.00,0.00 c 8.797,0.00, 16.00,7.203, 16.00,16.00c0.00,0.00,0.00,43.50,0.00,64.00
		C 511.50,358.50, 463.609,378.086, 433.195,389.109z M 95.50,352.50c0.00,4.398, 3.602,8.00, 8.00,8.00l 304.00,0.00 c 4.398,0.00, 8.00-3.602, 8.00-8.00l0.00-155.375 
		c0.00-4.398-3.391-9.203-7.555-10.672c0.00,0.00-50.641-19.633-152.445-19.633s-152.445,19.633-152.445,19.633
		c-4.164,1.469-7.555,6.273-7.555,10.672L 95.50,352.50 z M 143.50,104.50l-48.00,0.00 l-16.00,14.398L 79.50,152.50 l 64.00-16.00L 143.50,104.50 z M 319.50,72.50l-112.00,0.00 l0.00,32.00 l 112.00,0.00 L 319.50,72.50 z
		 M 367.50,104.50l0.00,32.00 l 64.00,16.00l0.00-33.602 l-16.00-14.398L 367.50,104.50 z" />
<glyph unicode="&#xe02e;" d="M 490.167,130.021L 20.833,53.833L 20.833,139.166L 490.167,215.354 zM 490.167,44.687L 20.833-31.50l0.00,85.333 l 469.334,76.188L 490.167,44.687 z M 490.167,306.792
	l-469.334-79.25l0.00-88.375 l 469.334,76.188L 490.167,306.792 zM 212.833,480.50c 170.667,0.00, 277.334,0.00, 277.334-131.042l-469.334-79.25L 212.833,480.50z" />
<glyph unicode="&#xe02f;" d="M 415.50,480.50l-320.00,0.00 c-35.354,0.00-64.00-28.667-64.00-64.00l0.00-384.00 c0.00-35.333, 28.646-64.00, 64.00-64.00l 320.00,0.00 c 35.354,0.00, 64.00,28.667, 64.00,64.00l0.00,384.00 
		C 479.50,451.833, 450.854,480.50, 415.50,480.50z M 159.50,36.771c0.00-2.354-1.917-4.271-4.271-4.271L 99.771,32.50 c-2.354,0.00-4.271,1.917-4.271,4.271
		l0.00,34.125 c0.00,2.354, 1.917,4.271, 4.271,4.271l 55.458,0.00 c 2.354,0.00, 4.271-1.917, 4.271-4.271L 159.50,36.771 z M 159.50,100.771
		c0.00-2.354-1.917-4.271-4.271-4.271L 99.771,96.50 c-2.354,0.00-4.271,1.917-4.271,4.271l0.00,34.125 c0.00,2.354, 1.917,4.271, 4.271,4.271l 55.458,0.00 
		c 2.354,0.00, 4.271-1.916, 4.271-4.271L 159.50,100.771 z M 159.50,164.771c0.00-2.354-1.917-4.271-4.271-4.271L 99.771,160.50 
		c-2.354,0.00-4.271,1.916-4.271,4.271l0.00,34.125 c0.00,2.354, 1.917,4.271, 4.271,4.271l 55.458,0.00 c 2.354,0.00, 4.271-1.916, 4.271-4.271L 159.50,164.771 z
		 M 159.50,228.771c0.00-2.354-1.917-4.271-4.271-4.271L 99.771,224.50 c-2.354,0.00-4.271,1.917-4.271,4.271l0.00,34.125 
		c0.00,2.354, 1.917,4.271, 4.271,4.271l 55.458,0.00 c 2.354,0.00, 4.271-1.917, 4.271-4.271L 159.50,228.771 z M 244.833,36.771
		c0.00-2.354-1.917-4.271-4.271-4.271l-55.458,0.00 c-2.354,0.00-4.271,1.917-4.271,4.271l0.00,34.125 c0.00,2.354, 1.917,4.271, 4.271,4.271l 55.458,0.00 
		c 2.354,0.00, 4.271-1.917, 4.271-4.271L 244.833,36.771 z M 244.833,100.771c0.00-2.354-1.917-4.271-4.271-4.271l-55.458,0.00 
		c-2.354,0.00-4.271,1.917-4.271,4.271l0.00,34.125 c0.00,2.354, 1.917,4.271, 4.271,4.271l 55.458,0.00 c 2.354,0.00, 4.271-1.916, 4.271-4.271L 244.833,100.771 z
		 M 244.833,164.771c0.00-2.354-1.917-4.271-4.271-4.271l-55.458,0.00 c-2.354,0.00-4.271,1.916-4.271,4.271l0.00,34.125 
		c0.00,2.354, 1.917,4.271, 4.271,4.271l 55.458,0.00 c 2.354,0.00, 4.271-1.916, 4.271-4.271L 244.833,164.771 z M 244.833,228.771
		c0.00-2.354-1.917-4.271-4.271-4.271l-55.458,0.00 c-2.354,0.00-4.271,1.917-4.271,4.271l0.00,34.125 c0.00,2.354, 1.917,4.271, 4.271,4.271l 55.458,0.00 
		c 2.354,0.00, 4.271-1.917, 4.271-4.271L 244.833,228.771 z M 330.166,36.771c0.00-2.354-1.916-4.271-4.27-4.271l-55.459,0.00 
		c-2.354,0.00-4.271,1.917-4.271,4.271l0.00,34.125 c0.00,2.354, 1.918,4.271, 4.271,4.271l 55.459,0.00 c 2.354,0.00, 4.27-1.917, 4.27-4.271L 330.166,36.771 z
		 M 330.166,100.771c0.00-2.354-1.916-4.271-4.27-4.271l-55.459,0.00 c-2.354,0.00-4.271,1.917-4.271,4.271l0.00,34.125 
		c0.00,2.354, 1.918,4.271, 4.271,4.271l 55.459,0.00 c 2.354,0.00, 4.27-1.916, 4.27-4.271L 330.166,100.771 z M 330.166,164.771c0.00-2.354-1.916-4.271-4.27-4.271
		l-55.459,0.00 c-2.354,0.00-4.271,1.916-4.271,4.271l0.00,34.125 c0.00,2.354, 1.918,4.271, 4.271,4.271l 55.459,0.00 c 2.354,0.00, 4.27-1.916, 4.27-4.271L 330.166,164.771 
		z M 330.166,228.771c0.00-2.354-1.916-4.271-4.27-4.271l-55.459,0.00 c-2.354,0.00-4.271,1.917-4.271,4.271l0.00,34.125 
		c0.00,2.354, 1.918,4.271, 4.271,4.271l 55.459,0.00 c 2.354,0.00, 4.27-1.917, 4.27-4.271L 330.166,228.771 z M 415.50,36.771c0.00-2.354-1.917-4.271-4.271-4.271
		l-55.459,0.00 c-2.354,0.00-4.271,1.917-4.271,4.271L 351.499,198.896 c0.00,2.354, 1.916,4.271, 4.271,4.271l 55.459,0.00 c 2.354,0.00, 4.271-1.916, 4.271-4.271
		L 415.50,36.771 z M 415.50,228.771c0.00-2.354-1.917-4.271-4.271-4.271l-55.459,0.00 c-2.354,0.00-4.271,1.917-4.271,4.271l0.00,34.125 
		c0.00,2.354, 1.916,4.271, 4.271,4.271l 55.459,0.00 c 2.354,0.00, 4.271-1.917, 4.271-4.271L 415.50,228.771 z M 415.50,331.167
		c0.00-11.729-9.604-21.333-21.333-21.333L 116.833,309.834 c-11.729,0.00-21.333,9.604-21.333,21.333l0.00,64.00 c0.00,11.729, 9.604,21.333, 21.333,21.333
		l 277.333,0.00 c 11.729,0.00, 21.333-9.604, 21.333-21.333L 415.499,331.167 z" />
<glyph unicode="&#xe030;" d="M 10.167,331.167l0.00-341.333 c0.00-11.729, 9.604-21.333, 21.333-21.333l 448.00,0.00 c 11.729,0.00, 21.333,9.604, 21.333,21.333L 500.833,331.167 L 10.167,331.167 z
		 M 116.833,11.167l-64.00,0.00 l0.00,64.00 l 64.00,0.00 L 116.833,11.167 z M 116.833,96.50l-64.00,0.00 l0.00,64.00 l 64.00,0.00 L 116.833,96.50 z M 116.833,181.834l-64.00,0.00 l0.00,64.00 l 64.00,0.00 L 116.833,181.834 z M 202.167,11.167
		l-64.00,0.00 l0.00,64.00 l 64.00,0.00 L 202.167,11.167 z M 202.167,96.50l-64.00,0.00 l0.00,64.00 l 64.00,0.00 L 202.167,96.50 z M 202.167,181.834l-64.00,0.00 l0.00,64.00 l 64.00,0.00 L 202.167,181.834 z M 287.50,11.167l-64.00,0.00 l0.00,64.00 l 64.00,0.00 L 287.50,11.167 z
		 M 287.50,96.50l-64.00,0.00 l0.00,64.00 l 64.00,0.00 L 287.50,96.50 z M 287.50,181.834l-64.00,0.00 l0.00,64.00 l 64.00,0.00 L 287.50,181.834 z M 372.833,11.167l-64.00,0.00 l0.00,64.00 l 64.00,0.00 L 372.833,11.167 z M 372.833,96.50l-64.00,0.00 l0.00,64.00 
		l 64.00,0.00 L 372.833,96.50 z M 372.833,181.834l-64.00,0.00 l0.00,64.00 l 64.00,0.00 L 372.833,181.834 z M 458.167,11.167l-64.00,0.00 l0.00,64.00 l 64.00,0.00 L 458.167,11.167 z M 458.167,96.50l-64.00,0.00 l0.00,64.00 l 64.00,0.00 L 458.167,96.50 z
		 M 458.167,181.834l-64.00,0.00 l0.00,64.00 l 64.00,0.00 L 458.167,181.834 z M 500.833,416.50l0.00-64.00 L 10.167,352.50 l0.00,64.00 c0.00,11.729, 9.604,21.333, 21.333,21.333l 42.667,0.00 L 74.167,459.167 
		C 74.167,470.896, 83.771,480.50, 95.50,480.50l 21.333,0.00 c 11.729,0.00, 21.333-9.604, 21.333-21.333l0.00-21.333 l 234.666,0.00 L 372.832,459.167 
		c0.00,11.729, 9.604,21.333, 21.334,21.333L 415.50,480.50 c 11.729,0.00, 21.333-9.604, 21.333-21.333l0.00-21.333 L 479.50,437.834 
		C 491.229,437.833, 500.833,428.229, 500.833,416.50z" />
<glyph unicode="&#xe031;" d="M 255.49,239.27c 29.905,0.00, 54.156-24.25, 54.156-54.156c0.00-29.904-24.251-54.155-54.156-54.155
			c-29.904,0.00-54.155,24.251-54.155,54.155C 201.335,215.02, 225.586,239.27, 255.49,239.27zM 444.536,362.351L 377.37,362.351 c-0.26,0.692-0.317,1.356-0.605,2.067l-6.212,15.539c-9.115,22.799-36.684,41.454-61.242,41.454
			L 201.69,421.411 c-24.559,0.00-52.107-18.654-61.242-41.454l-6.212-15.539c-0.289-0.711-0.347-1.375-0.606-2.067L 66.474,362.351 
			c-36.848,0.00-66.974-30.155-66.974-66.974l0.00-200.815 c0.00-36.818, 30.155-66.974, 66.974-66.974l 378.063,0.00 
			c 36.848,0.00, 66.964,30.155, 66.964,66.974L 511.501,295.377 C 511.50,332.196, 481.346,362.351, 444.536,362.351z M 255.49,81.726
			c-57.012,0.00-103.388,46.377-103.388,103.388c0.00,57.012, 46.376,103.389, 103.388,103.389c 57.013,0.00, 103.389-46.377, 103.389-103.389
			C 358.879,128.103, 312.503,81.726, 255.49,81.726z M 452.421,283.579l-39.386,0.00 l0.00,19.693 l 39.386,0.00 L 452.421,283.579 z" />
<glyph unicode="&#xe032;" d="M 372.833,480.50C 308.042,480.50, 255.50,428.00, 255.50,363.167c0.00-25.083, 7.938-48.302, 21.333-67.333l0.00-28.667 L 255.50,267.167 
			c0.00,11.729-9.604,21.333-21.333,21.333L 42.166,288.50 c-11.729,0.00-21.333-9.604-21.333-21.333l0.00-149.333 c0.00-11.729, 9.604-21.333, 21.333-21.333
			l 192.001,0.00 c 11.729,0.00, 21.333,9.604, 21.333,21.333l 21.333,0.00 l0.00-88.854 c0.00-33.281, 27.209-60.479, 60.459-60.479l 71.083,0.00 
			c 33.25,0.00, 60.458,27.198, 60.458,60.479L 468.833,203.166 l0.00,46.188 l0.00,46.479 c 13.396,19.052, 21.334,42.25, 21.334,67.333
			C 490.167,428.00, 437.625,480.50, 372.833,480.50z M 319.50,53.833l0.00,21.334 l 21.333,0.00 l0.00-21.334 L 319.50,53.833 z M 362.167,11.167l-21.334,0.00 L 340.833,32.50 l 21.334,0.00 
			L 362.167,11.167 z M 404.833,11.167L 383.50,11.167 L 383.50,32.50 l 21.333,0.00 L 404.833,11.167 z M 362.167,53.833l0.00,21.334 L 383.50,75.167 l0.00-21.334 L 362.167,53.833 z M 426.167,53.833
			l-21.334,0.00 l0.00,21.334 l 21.334,0.00 L 426.167,53.833 z M 372.833,288.50c-41.25,0.00-74.666,33.406-74.666,74.667c0.00,41.261, 33.416,74.667, 74.666,74.667
			S 447.50,404.427, 447.50,363.167C 447.50,321.906, 414.083,288.50, 372.833,288.50zM 426.188,363.167c0.00-29.438-23.896-53.354-53.354-53.354c-27.791,0.00-50.333,21.354-52.854,48.448
		c 6.188-3.563, 13.25-5.739, 20.958-5.739c 23.521,0.00, 42.50,19.031, 42.50,42.521c0.00,7.656-2.188,14.74-5.75,20.948
		C 404.875,413.49, 426.188,390.917, 426.188,363.167z" />
<glyph unicode="&#xe033;" d="M 257.203,480.50c 14.545-61.122-150.433-160.249-12.702-203.962c-39.426,39.005, 9.727,55.693, 16.127,88.147
		c 24.641-10.257, 61.112-66.672, 20.845-88.448C 393.542,283.049, 328.572,433.922, 257.203,480.50zM 450.388,50.559L 60.613,50.559 c-5.64,0.00-10.257-4.608-10.257-10.258l0.00-20.515 c0.00-5.649, 4.618-10.257, 10.257-10.257l 30.771,0.00 
		l 41.029-41.029l 246.174,0.00 l 41.028,41.029l 30.772,0.00 c 5.64,0.00, 10.257,4.607, 10.257,10.257l0.00,20.515 
		C 460.645,45.95, 456.027,50.559, 450.388,50.559zM 317.043,255.702L 214.471,255.702 c-22.568,0.00-41.029-18.471-41.029-41.028l0.00-46.458 c-11.489-5.83-20.515-20.815-20.515-38.324l0.00-68.796 
		l 205.145,0.00 L 358.072,214.674 C 358.072,237.231, 339.611,255.702, 317.043,255.702z" />
<glyph unicode="&#xe034;" d="M 501.654,303.269L 464.23,303.269 L 431.885,411.086c-11.154,22.346-19.77,30.029-45.615,30.029L 255.50,441.115 L 124.731,441.115 
		c-25.846,0.00-34.462-7.702-45.616-30.029L 46.769,303.269L 9.346,303.269 c-5.423,0.00-9.846-4.413-9.846-9.846l0.00-19.692 
		c0.00-5.433, 4.423-9.846, 9.846-9.846l 18.058,0.00 l-8.211-19.692L 19.193,17.73 c0.00-5.413, 4.423-9.846, 9.846-9.846l 39.384,0.00 
		c 5.423,0.00, 9.846,4.433, 9.846,9.846L 78.269,47.27 L 255.50,47.27 l 177.23,0.00 l0.00-29.539 c0.00-5.413, 4.424-9.846, 9.847-9.846l 39.385,0.00 
		c 5.423,0.00, 9.846,4.433, 9.846,9.846L 491.808,244.192 l-8.212,19.692l 18.059,0.00 c 5.441,0.00, 9.846,4.413, 9.846,9.846l0.00,19.692 
		C 511.50,298.856, 507.096,303.269, 501.654,303.269z M 110.308,393.779c 2.461,4.327, 5.808,7.952, 11.961,7.952L 255.50,401.731 l 133.23,0.00 
		c 6.154,0.00, 9.50-3.645, 11.962-7.952c 3.308-7.25, 23.385-90.51, 23.385-90.51L 255.50,303.269 L 86.923,303.269 C 86.923,303.269, 106.981,386.529, 110.308,393.779
		z M 117.654,165.423L 58.577,165.423 l-19.692,19.692l0.00,41.356 l 78.769-21.664L 117.654,165.423 z M 334.27,86.654L 176.731,86.654 l0.00,39.384 L 334.27,126.038 L 334.27,86.654 z
		 M 472.115,185.115l-19.692-19.692l-59.077,0.00 l0.00,39.385 l 78.77,21.664L 472.116,185.115 z" />
<glyph unicode="&#xe035;" d="M 307.279-31.50L 239.18,226.525L 184.343,63.80L 1.366,63.80L 144.396,104.461L 243.846,480.50L 318.954,133.687L 373.633,303.182L 412.626,104.461L 509.634,63.80L 393.626,63.80L 375.042,116.672 	z" />
<glyph unicode="&#xe036;" d="M 447.50,328.375L 447.50,184.391L 447.50,168.375 	zM 9.362,47.265L 383.491,47.265L 383.491-11.808L 9.362-11.808zM 383.491-11.809L 501.638,106.337L 501.638,165.41L 383.491,47.265 	zM 9.362,7.882L 107.817,7.882L 107.817-31.50L 9.362-31.50zM 166.891,7.882L 245.655,7.882L 245.655-31.50L 166.891-31.50zM 304.728,7.882L 383.492,7.882L 383.492-31.50L 304.728-31.50zM 403.183,27.573L 383.491,7.882L 383.491-31.50L 403.183-11.809 		zM 422.873,7.882L 462.255,47.265L 462.255,86.646L 422.873,47.265 		zM 481.946,106.337L 481.946,66.955L 501.638,86.646L 501.638,126.028 		zM 195.504,390.933c 9.23,8.922, 30.46,30.459, 30.46,30.459L 88.127,421.392 c0.00,0.00-23.384-23.393-31.075-31.075
			c-7.673-7.673-8.308-13.23-8.308-22.152s0.00-25.537,0.00-25.537l 137.838,0.00 c0.00,0.00,0.00,13.845,0.00,25.834
			C 186.582,377.405, 186.273,382.011, 195.504,390.933zM 225.964,368.463c0.00-8.625,0.00-25.834,0.00-25.834l 137.837,0.00 l 39.382,39.382c0.00,0.00,0.00,21.835,0.00,28.921
			c0.00,7.096-3.692,10.461-10.769,10.461c-7.077,0.00-127.068,0.00-127.068,0.00s-21.229-21.229-30.46-30.459
			C 225.656,381.693, 225.964,377.088, 225.964,368.463zM 48.744,322.937L 186.582,322.937L 186.582,244.173L 48.744,244.173zM 403.183,283.556L 403.183,362.32L 363.801,322.937L 225.964,322.937L 225.964,244.174L 363.801,244.174 		zM 285.036,480.465c0.00,0.00-106.916,0.00-120.915,0.00s-15.999,0.923-23.69-6.769c-7.711-7.702-32.613-32.613-32.613-32.613l 137.837,0.00 
			L 285.036,480.465zM 225.964,145.719L 363.801,145.719L 403.183,185.101L 403.183,263.865L 363.801,224.483L 225.964,224.483 		zM 48.744,224.483L 186.582,224.483L 186.582,145.719L 48.744,145.719zM 422.873,303.247L 462.255,342.629L 462.255,421.393L 422.873,382.011 		zM 324.418,480.465l-39.382-39.382c0.00,0.00, 103.378,0.00, 118.146,0.00c 14.768,0.00, 19.69-6.557, 19.69-19.277s0.00-20.104,0.00-20.104
			l 39.382,39.382c0.00,0.00,0.00,12.326,0.00,19.71c0.00,14.133-4.923,19.671-19.69,19.671C 433.949,480.465, 324.418,480.465, 324.418,480.465zM 422.873,204.792L 462.255,244.174L 462.255,322.937L 422.873,283.556 		zM 422.873,126.028L 462.255,165.41L 462.255,224.483L 422.873,185.101 		zM 363.801,126.028L 225.964,126.028L 225.964,66.955L 363.801,66.955L 403.183,106.337L 403.183,165.41 		zM 48.744,126.028L 186.582,126.028L 186.582,66.955L 48.744,66.955z" />
<glyph unicode="&#xe037;" d="M 333.723,260.056l-27.028,0.00 l-23.36,63.646c-8.057,16.139-14.278,21.688-32.945,21.688L 89.958,345.39 
				c-18.667,0.00-24.889-5.563-32.944-21.688l-23.375-63.646L 6.611,260.056 c-3.931,0.00-7.111-3.188-7.111-7.111l0.00-14.223 
				c0.00-3.923, 3.181-7.11, 7.111-7.11l 13.042,0.00 l-5.931-14.223l0.00-163.556 c0.00-3.909, 3.194-7.11, 7.111-7.11l 28.444,0.00 
				c 3.917,0.00, 7.111,3.201, 7.111,7.11l0.00,21.334 l 113.777,0.00 l 113.778,0.00 l0.00-21.334 c0.00-3.909, 3.194-7.11, 7.111-7.11L 319.50,46.723 
				c 3.916,0.00, 7.111,3.201, 7.111,7.11L 326.611,217.389 l-5.931,14.223l 13.042,0.00 c 3.93,0.00, 7.111,3.188, 7.111,7.11l0.00,14.223 
				C 340.834,256.868, 337.652,260.056, 333.723,260.056z M 79.528,311.201c 1.778,3.125, 4.194,5.743, 8.639,5.743l 163.986,0.00 
				c 4.445,0.00, 6.861-2.632, 8.638-5.743c 2.39-5.236, 16.89-65.368, 16.89-65.368L 62.639,245.833 C 62.639,245.833, 77.139,305.965, 79.528,311.201z
				 M 84.833,160.50L 42.167,160.50 l-14.222,14.222L 27.945,204.59 l 56.889-15.646L 84.834,160.50 z M 227.056,103.611L 113.278,103.611 l0.00,28.444 l 113.778,0.00 L 227.056,103.611 z
				 M 312.389,174.722L 298.166,160.50L 255.50,160.50 l0.00,28.444 l 56.889,15.646L 312.389,174.722 zM 504.389,345.389l-27.027,0.00 c0.00,0.00-11.736,25.729-16.25,35.201c-7.389,15.035-11.611,21.688-32.944,21.688L 383.50,402.278 l-80.223,0.00 
		c-18.666,0.00-25.597-6.882-32.943-21.688l-6.473-12.743c 11.083-3.188, 22.764-11.333, 22.764-11.333s 4.584,7.944, 6.236,11.576
		c 1.777,3.125, 4.194,5.743, 8.639,5.743l 128.431,0.00 c 4.444,0.00, 6.861-2.632, 8.639-5.743c 2.389-5.236, 9.778-36.924, 9.778-36.924L 301.723,331.166 
		l 21.333-56.889l 13.333,0.00 c 14.111,0.00, 18.667-3.938, 18.667-18.063l0.00-38.826 l 56.889,0.00 l0.00-28.444 l-71.11,0.00 l0.00-14.223 l 113.777,0.00 l0.00-21.333 
		c0.00-3.909, 3.194-7.111, 7.111-7.111l 28.444,0.00 c 3.916,0.00, 7.11,3.202, 7.11,7.111L 497.277,302.722 l-5.93,14.223l 13.041,0.00 
		c 3.931,0.00, 7.111,3.188, 7.111,7.111l0.00,14.222 C 511.50,342.201, 508.319,345.389, 504.389,345.389z M 483.056,260.056l-14.223-14.223
		l-28.444,0.00 l0.00,28.444 l 42.667,15.646L 483.056,260.056 z" />
<glyph unicode="&#xe038;" d="M 491.421,445.351l-50.197,0.00 c-9.295,0.00-17.394-6.392-19.53-15.451l-15.412-64.865l-81.592,0.00 l-33.139-40.159l 19.158,0.00 l0.00-20.079 L 290.63,304.797 
		l0.00,18.961 l-32.197-39.041l 12.118,0.00 l0.00-20.079 l-20.08,0.00 L 250.471,275.11 l-10.078-12.216c-6.314-8.393-17.275-14.647-29.139-14.647
		c-11.98,0.00-23.158,5.569-30.688,15.314l-0.941,1.118l-9.471,0.00 l0.00,11.295 l-24.334,28.864l-15.824,0.00 l0.00,18.824 l-34.884,41.413L 19.561,365.075 
		c-6.079,0.00-11.843-2.765-15.667-7.51c-3.765-4.765-5.255-10.98-3.902-16.922l 40.158-180.713c 2.04-9.196, 10.197-15.726, 19.609-15.726
		l 294.286,0.00 l-19.021-80.317L 89.838,63.887 c-11.099,0.00-20.079-8.98-20.079-20.079c0.00-11.098, 8.98-20.079, 20.079-20.079l 21.922,0.00 
		c-1.118-3.156-1.843-6.51-1.843-10.039c0.00-16.628, 13.491-30.119, 30.119-30.119s 30.119,13.491, 30.119,30.119
		c0.00,3.529-0.726,6.883-1.843,10.039l 104.083,0.00 c-1.118-3.156-1.843-6.51-1.843-10.039c0.00-16.628, 13.49-30.119, 30.118-30.119
		s 30.119,13.491, 30.119,30.119c0.00,3.529-0.726,6.883-1.844,10.039l 21.923,0.00 c 9.49,0.00, 17.412,10.04, 19.491,20.079l 0.039,0.00 l 86.709,361.425
		l 34.314,0.00 c 11.099,0.00, 20.079,8.981, 20.079,20.08C 511.50,436.41, 502.52,445.351, 491.421,445.351z M 69.759,224.48l-2.863,0.00 l-4.49,20.079l 7.354,0.00 
		L 69.76,224.48 z M 69.759,264.639L 57.974,264.639 l-4.451,20.079l 16.236,0.00 L 69.759,264.639 z M 69.759,304.797L 49.052,304.797 l-4.471,20.079l 25.178,0.00 L 69.759,304.797 z
		 M 109.917,184.322L 89.838,184.322 l0.00,20.079 l 20.079,0.00 L 109.917,184.322 z M 109.917,224.48L 89.838,224.48 L 89.838,244.56 l 20.079,0.00 L 109.917,224.48 z M 109.917,264.639L 89.838,264.639 l0.00,20.079 
		l 20.079,0.00 L 109.917,264.639 z M 109.917,304.797L 89.838,304.797 l0.00,20.079 l 20.079,0.00 L 109.917,304.797 z M 150.075,184.322l-20.079,0.00 l0.00,20.079 l 20.079,0.00 L 150.075,184.322 z
		 M 150.075,224.48l-20.079,0.00 L 129.996,244.56 l 20.079,0.00 L 150.075,224.48 z M 150.075,264.639l-20.079,0.00 l0.00,20.079 l 20.079,0.00 L 150.075,264.639 z M 190.233,184.322l-20.079,0.00 
		l0.00,20.079 l 20.079,0.00 L 190.233,184.322 z M 190.233,224.48l-20.079,0.00 L 170.154,244.56 l 20.079,0.00 L 190.233,224.48 z M 230.392,184.322l-20.079,0.00 l0.00,20.079 l 20.079,0.00 L 230.392,184.322 z
		 M 230.392,224.48l-20.079,0.00 L 210.313,244.56 l 20.079,0.00 L 230.392,224.48 z M 270.551,184.322l-20.08,0.00 l0.00,20.079 l 20.08,0.00 L 270.551,184.322 z M 270.551,224.48l-20.08,0.00 L 250.471,244.56 
		l 20.08,0.00 L 270.551,224.48 z M 310.709,184.322L 290.63,184.322 l0.00,20.079 l 20.079,0.00 L 310.709,184.322 z M 310.709,224.48L 290.63,224.48 L 290.63,244.56 l 20.079,0.00 L 310.709,224.48 z M 310.709,264.639
		L 290.63,264.639 l0.00,20.079 l 20.079,0.00 L 310.709,264.639 z M 350.867,184.322l-20.079,0.00 l0.00,20.079 l 20.079,0.00 L 350.867,184.322 z M 350.867,224.48l-20.079,0.00 L 330.788,244.56 l 20.079,0.00 L 350.867,224.48 z
		 M 350.867,264.639l-20.079,0.00 l0.00,20.079 l 20.079,0.00 L 350.867,264.639 z M 350.867,304.797l-20.079,0.00 l0.00,20.079 l 20.079,0.00 L 350.867,304.797 z M 373.024,224.48l-2.078,0.00 
		L 370.946,244.56 l 6.844,0.00 L 373.024,224.48z M 385.535,277.247l-2.941-12.608l-11.647,0.00 l0.00,20.079 l 16.235,0.00 L 385.535,277.247z M 391.653,304.797l-20.707,0.00 
		l0.00,20.079 l 25.178,0.00 L 391.653,304.797z M 111.29,398.82c-1.863,2.353-0.882,6.373, 2.079,6.373l 56.786,0.00 L 170.155,455.391 
		c0.00,5.53, 4.51,10.04, 10.04,10.04l 60.238,0.00 c 5.529,0.00, 10.039-4.51, 10.039-10.04l0.00-50.198 l 57.198,0.00 c 2.98,0.00, 3.941-3.765, 2.118-6.137
		l-95.65-115.142c-0.804-1.059-1.863-1.53-2.922-1.53c-1.294,0.00-2.706,0.745-3.726,2.098L 111.29,398.82z" />
<glyph unicode="&#xe039;" d="M 491.421,445.224l-50.197,0.00 c-9.295,0.00-17.394-6.392-19.53-15.452l-15.412-64.865l-76.003,0.00 
		c 7.138-9.608, 8.353-17.922, 3.451-28.001c-4.922-10.04-23.021-12.157-23.021-12.157l0.00-20.079 L 290.63,304.67 l0.00,20.079 l-20.079,0.00 l0.00-60.237 L 129.996,264.512 
		L 129.996,284.59 l 20.079,0.00 l0.00,20.079 l-20.079,0.00 l0.00,20.079 l-16.589,0.00 c-11.138,0.00-21.138,2.04-26.079,12.04c-4.746,9.627-3.687,19.432, 2.235,28.119
		L 19.561,364.907 c-6.079,0.00-11.843-2.765-15.667-7.51c-3.765-4.765-5.255-10.981-3.902-16.922l 40.158-180.713
		c 2.04-9.195, 10.197-15.726, 19.609-15.726l 294.286,0.00 l-19.021-80.317L 89.838,63.719 c-11.099,0.00-20.079-8.98-20.079-20.078
		c0.00-11.10, 8.98-20.08, 20.079-20.08l 21.922,0.00 c-1.117-3.156-1.843-6.51-1.843-10.039c0.00-16.629, 13.49-30.119, 30.119-30.119
		c 16.628,0.00, 30.118,13.49, 30.118,30.119c0.00,3.529-0.726,6.883-1.843,10.039l 104.082,0.00 c-1.118-3.156-1.843-6.51-1.843-10.039
		c0.00-16.629, 13.49-30.119, 30.118-30.119s 30.119,13.49, 30.119,30.119c0.00,3.529-0.726,6.883-1.844,10.039l 21.923,0.00 
		c 9.49,0.00, 17.412,10.041, 19.491,20.08l 0.039,0.00 l 86.709,361.425l 34.314,0.00 c 11.099,0.00, 20.079,8.981, 20.079,20.079
		C 511.50,436.243, 502.52,445.224, 491.421,445.224z M 69.759,224.353l-2.863,0.00 l-4.49,20.079l 7.354,0.00 L 69.76,224.353 z M 69.759,264.511L 57.974,264.511 
		l-4.451,20.079l 16.236,0.00 L 69.759,264.511 z M 69.759,304.669L 49.052,304.669 l-4.471,20.079l 25.178,0.00 L 69.759,304.669 z M 109.917,184.194L 89.838,184.194 l0.00,20.079 l 20.079,0.00 
		L 109.917,184.194 z M 109.917,224.353L 89.838,224.353 l0.00,20.079 l 20.079,0.00 L 109.917,224.353 z M 109.917,264.511L 89.838,264.511 L 89.838,284.59 l 20.079,0.00 L 109.917,264.511 z M 109.917,304.669
		L 89.838,304.669 l0.00,20.079 l 20.079,0.00 L 109.917,304.669 z M 150.075,184.194l-20.079,0.00 l0.00,20.079 l 20.079,0.00 L 150.075,184.194 z M 150.075,224.353l-20.079,0.00 l0.00,20.079 l 20.079,0.00 
		L 150.075,224.353 z M 190.233,184.194l-20.079,0.00 l0.00,20.079 l 20.079,0.00 L 190.233,184.194 z M 190.233,224.353l-20.079,0.00 l0.00,20.079 l 20.079,0.00 L 190.233,224.353 z M 230.392,184.194
		l-20.079,0.00 l0.00,20.079 l 20.079,0.00 L 230.392,184.194 z M 230.392,224.353l-20.079,0.00 l0.00,20.079 l 20.079,0.00 L 230.392,224.353 z M 270.551,184.194l-20.08,0.00 l0.00,20.079 l 20.08,0.00 
		L 270.551,184.194 z M 270.551,224.353l-20.08,0.00 l0.00,20.079 l 20.08,0.00 L 270.551,224.353 z M 310.709,184.194L 290.63,184.194 l0.00,20.079 l 20.079,0.00 L 310.709,184.194 z M 310.709,224.353
		L 290.63,224.353 l0.00,20.079 l 20.079,0.00 L 310.709,224.353 z M 310.709,264.511L 290.63,264.511 L 290.63,284.59 l 20.079,0.00 L 310.709,264.511 z M 350.867,184.194l-20.079,0.00 l0.00,20.079 l 20.079,0.00 L 350.867,184.194 
		z M 350.867,224.353l-20.079,0.00 l0.00,20.079 l 20.079,0.00 L 350.867,224.353 z M 350.867,264.511l-20.079,0.00 L 330.788,284.59 l 20.079,0.00 L 350.867,264.511 z M 350.867,304.669l-20.079,0.00 
		l0.00,20.079 l 20.079,0.00 L 350.867,304.669 z M 373.024,224.353l-2.078,0.00 l0.00,20.079 l 6.844,0.00 L 373.024,224.353z M 385.535,277.12l-2.941-12.608l-11.647,0.00 L 370.947,284.59 
		l 16.235,0.00 L 385.535,277.12z M 391.653,304.669l-20.707,0.00 l0.00,20.079 l 25.178,0.00 L 391.653,304.669z M 113.407,344.828
		c-2.941,0.00-3.941,2.667-2.078,5.04l 95.65,114.063c 0.804,1.098, 1.823,1.667, 2.902,1.667c 1.313,0.00, 2.726-0.412, 3.745-1.765
		l 96.238-113.789c 1.824-2.353, 0.883-5.216-2.078-5.216l-57.316,0.00 l0.00-50.198 c0.00-5.53-4.51-10.04-10.039-10.04l-60.237,0.00 
		c-5.53,0.00-10.04,4.51-10.04,10.04l0.00,50.198 L 113.407,344.828 z" />
<glyph unicode="&#xe03a;" d="M 439.82,419.06l-102.40,0.00 L 337.42,460.02 c0.00,11.26, 9.22,20.48, 20.48,20.48l 61.439,0.00 c 11.26,0.00, 20.48-9.22, 20.48-20.48L 439.819,419.06 
		z M 255.50,234.74L 9.74,234.74 l 102.40-112.641L 112.14-11.02 L 50.70-11.02 l0.00-20.48 l 163.84,0.00 l0.00,20.48 l-61.439,0.00 L 153.101,122.10 L 255.50,234.74z M 501.26,234.74l0.00-245.76 
		c0.00-11.261-9.22-20.48-20.479-20.48L 296.46-31.50 c-11.26,0.00-20.48,9.22-20.48,20.48L 275.98,234.74 c0.00,40.96, 61.44,61.44, 61.44,102.40L 337.42,398.58 l 102.40,0.00 
		l0.00-61.44 C 439.82,296.18, 501.26,275.70, 501.26,234.74z M 306.70,214.26l-10.24,0.00 L 296.46-11.02 l 10.24,0.00 L 306.70,214.26 z" />
<glyph unicode="&#xe03b;" d="M 345.709,152.096L 313.077,93.392L 255.48,127.954L 197.882,93.392L 165.251,152.096L 142.176,151.733L 142.176-31.50L 255.48,71.504L 368.783-31.359L 368.783,151.733 		zM 399.937,308.412l 27.642,46.11l-46.995,26.113l 0.896,53.755l-53.756-0.865L 301.60,480.50l-46.10-27.702L 209.40,480.50
			l-26.123-46.975l-53.755,0.865l 0.895-53.755l-46.995-26.113l 27.642-46.11l-27.642-46.11l 46.995-26.113l-0.895-53.755l 53.755,0.865
			l 26.123-46.976l 46.10,27.702l 46.10-27.702l 26.123,46.976l 53.756-0.865l-0.896,53.755l 46.995,26.113L 399.937,308.412z M 238.963,391.82
			l-20.812,13.398l-11.87-22.753l-25.661,0.442l 0.594-26.133l-22.643-12.594l 13.458-19.293l-34.884-26.837l 9.908,13.378
			l-20.762,33.034l 35.267,18.81l-0.634,39.975l 40.356-0.845l 19.585,35.126l 31.524-20.822l 13.389,9.878L 238.963,391.82z" />
<glyph unicode="&#xe03c;" d="M 473.574,34.87L 473.574,309.833 c0.00,5.213-4.26,9.481-9.481,9.481l-75.852,0.00 c-5.223,0.00-9.481-4.269-9.481-9.481L 378.76,34.87 l-18.964,0.00 L 359.796,442.574 
		c0.00,5.213-4.259,9.481-9.481,9.481l-75.852,0.00 c-5.222,0.00-9.481-4.269-9.481-9.481L 264.982,34.87 l-18.963,0.00 L 246.019,233.981 
		c0.00,5.213-4.259,9.481-9.481,9.481l-75.852,0.00 c-5.222,0.00-9.481-4.269-9.481-9.481L 151.205,34.87 l-18.963,0.00 l0.00,85.334 
		c0.00,5.213-4.259,9.481-9.481,9.481L 46.907,129.685 c-5.222,0.00-9.481-4.269-9.481-9.481l0.00-9.481 l0.00-75.853 L-0.50,34.87 l0.00-37.926 l 512.00,0.00 l0.00,18.963 L 511.50,34.87 L 473.574,34.87 z" />
<glyph unicode="&#xe03d;" d="M 511.50,249.51c0.00-98.403-114.559-178.169-255.979-178.169c-36.896,0.00-71.92,5.511-103.599,15.229L 47.839,22.412
		c-5.132-2.692-8.077-0.336-6.563,5.322l 24.443,102.231C 24.532,161.604-0.50,203.548-0.50,249.552
		c0.00,98.361, 114.601,178.148, 256.00,178.148C 396.921,427.70, 511.50,347.913, 511.50,249.51z" />
<glyph unicode="&#xe03e;" d="M 370.684,147.684L 370.684,85.20 c0.00-12.755-10.444-23.198-23.199-23.198L 69.097,62.002 c-12.755,0.00-23.199,10.443-23.199,23.198L 45.898,363.588 
		c0.00,12.755, 10.444,23.199, 23.199,23.199l 247.078,0.00 l 40.326,40.304c-10.059,3.761-20.843,6.094-32.216,6.094L 92.296,433.185 
		C 41.14,433.185-0.50,391.567-0.50,340.389l0.00-231.989 c0.00-51.178, 41.64-92.796, 92.796-92.796l 231.989,0.00 c 51.155,0.00, 92.796,41.618, 92.796,92.796
		l0.00,85.682 L 370.684,147.684zM 508.02,376.252c 4.621-4.554, 4.645-12.053, 0.045-16.651L 252.785,104.345c-4.576-4.60-12.098-4.60-16.674,0.00L 99.319,241.113
		c-4.577,4.577-4.577,12.098,0.00,16.742l 54.146,54.124c 4.576,4.554, 12.098,4.554, 16.674,0.00l 65.995-65.995
		c 4.554-4.531, 12.075-4.531, 16.697,0.00l 183.96,183.983c 4.60,4.554, 12.121,4.577, 16.765,0.045L 508.02,376.252z" />
<glyph unicode="&#xe03f;" d="M 82.635,224.488L 338.635,480.50L 428.223,390.913L 262.035,224.488L 428.365,58.182L 338.66-31.50 	z" />
<glyph unicode="&#xe040;" d="M 428.359,224.488L 172.323,480.50L 82.737,390.913L 248.936,224.488L 82.641,58.181L 172.299-31.50 	z" />
<glyph unicode="&#xe041;" d="M-0.50,224.51c0.00-141.368, 114.601-256.01, 255.99-256.01c 141.41,0.00, 256.01,114.621, 256.01,256.01
		C 511.50,365.858, 396.90,480.50, 255.49,480.50C 114.101,480.50-0.50,365.879-0.50,224.51z M 288.31,349.223c 5.784,0.00, 10.502-4.718, 10.502-10.502
		l0.00-115.523 l 73.515,0.00 c 5.785,0.00, 7.426-3.59, 3.672-7.979L 263.634,84.146c-3.754-4.39-9.948-4.41-13.682-0.021L 136.951,215.238
		c-3.774,4.39-2.133,7.959, 3.651,7.959l 74.191,0.00 L 214.793,338.721 c0.00,5.784, 4.718,10.502, 10.503,10.502L 288.31,349.223 z" />
<glyph unicode="&#xe042;" d="M 255.49,480.50C 114.162,480.50-0.50,365.899-0.50,224.511c0.00-141.41, 114.621-256.011, 255.99-256.011
		c 141.39,0.00, 256.01,114.601, 256.01,256.011C 511.50,365.899, 396.859,480.50, 255.49,480.50z M 382.829,191.691
		c0.00-5.784-4.718-10.502-10.503-10.502L 256.803,181.189 l0.00-71.566 c0.00-5.743-3.631-7.446-8.062-3.774L 114.347,217.782
		c-4.431,3.692-4.431,9.764,0.00,13.456l 134.395,111.934c 4.431,3.713, 8.062,2.011, 8.062-3.773l0.00-74.192 l 115.523,0.00 
		c 5.785,0.00, 10.503-4.718, 10.503-10.502L 382.83,191.691 z" />
<glyph unicode="&#xe043;" d="M-0.50,224.51c0.00-141.39, 114.621-256.01, 255.99-256.01c 141.39,0.00, 256.01,114.60, 256.01,256.01
		C 511.50,365.879, 396.88,480.50, 255.49,480.50C 114.121,480.50-0.50,365.899-0.50,224.51z M 130.777,254.704c0.00,5.784, 4.718,10.502, 10.502,10.502
		l 115.523,0.00 l0.00,74.191 c0.00,5.743, 3.631,7.446, 8.062,3.774l 134.395-111.934c 4.431-3.692, 4.431-9.764,0.00-13.456L 264.864,105.848
		c-4.431-3.713-8.062-2.01-8.062,3.774l0.00,71.566 L 141.279,181.188 c-5.784,0.00-10.502,4.718-10.502,10.502L 130.777,254.704 z" />
<glyph unicode="&#xe044;" d="M 255.49-31.50c 141.389,0.00, 256.01,114.621, 256.01,255.989C 511.50,365.879, 396.899,480.50, 255.49,480.50
		C 114.121,480.50-0.50,365.879-0.50,224.489C-0.50,83.121, 114.101-31.50, 255.49-31.50z M 225.297,97.151
		c-5.785,0.00-10.503,4.717-10.503,10.502L 214.794,223.177 l-74.191,0.00 c-5.744,0.00-7.426,3.569-3.651,7.959l 113.001,131.112
		c 3.774,4.39, 9.928,4.369, 13.682-0.021l 112.364-131.071c 3.754-4.39, 2.154-7.979-3.672-7.979l-73.515,0.00 l0.00-115.523 
		c0.00-5.785-4.718-10.502-10.502-10.502L 225.297,97.152 z" />
<glyph unicode="&#xe045;" d="M 255.50,480.50c-141.367,0.00-256.00-114.612-256.00-256.00s 114.633-256.00, 256.00-256.00s 256.00,114.612, 256.00,256.00S 396.867,480.50, 255.50,480.50z
		 M 297.296,67.766c0.00-5.756-4.693-10.449-10.449-10.449l-62.693,0.00 c-5.755,0.00-10.449,4.693-10.449,10.449l0.00,62.693 
		c0.00,5.755, 4.694,10.449, 10.449,10.449l 62.693,0.00 c 5.756,0.00, 10.449-4.694, 10.449-10.449L 297.296,67.766 z M 297.296,297.643
		c0.00-5.755-0.918-15.061-2.041-20.694l-18.815-99.673c-1.103-5.674-6.735-15.469-12.49-15.469l-16.408,0.00 
		c-5.755,0.00-11.388,9.836-12.571,15.469l-19.225,97.062c-1.143,5.673-2.082,17.551-2.082,23.306L 213.664,381.235 
		c0.00,5.755, 4.694,10.449, 10.449,10.449l 62.694,0.00 c 5.755,0.00, 10.448-4.694, 10.448-10.449L 297.296,297.643L 297.296,297.643z" />
<glyph unicode="&#xe046;" d="M 255.50,480.50c-141.388,0.00-256.00-114.612-256.00-256.00s 114.612-256.00, 256.00-256.00c 141.367,0.00, 256.00,114.612, 256.00,256.00S 396.867,480.50, 255.50,480.50z
		 M 234.602,360.337c0.00,5.755, 4.694,10.449, 10.449,10.449l 41.796,0.00 c 5.755,0.00, 10.449-4.694, 10.449-10.449l0.00-41.796 
		c0.00-5.755-4.694-10.449-10.449-10.449l-41.796,0.00 c-5.755,0.00-10.449,4.694-10.449,10.449L 234.602,360.337 z M 339.092,88.663
		c0.00-5.755-4.693-10.449-10.449-10.449L 203.255,78.214 c-5.755,0.00-10.449,4.694-10.449,10.449l0.00,41.796 c0.00,5.755, 4.694,10.449, 10.449,10.449
		l 31.347,0.00 L 234.602,224.50 l-31.347,0.00 c-5.755,0.00-10.449,4.694-10.449,10.449l0.00,41.796 c0.00,5.755, 4.694,10.449, 10.449,10.449l 83.592,0.00 
		c 5.755,0.00, 10.449-4.694, 10.449-10.449l0.00-135.837 l 31.347,0.00 c 5.756,0.00, 10.449-4.694, 10.449-10.449L 339.092,88.663 z" />
<glyph unicode="&#xe047;" d="M 255.50,480.50c-141.388,0.00-256.00-114.612-256.00-256.00s 114.612-256.00, 256.00-256.00s 256.00,114.612, 256.00,256.00S 396.888,480.50, 255.50,480.50z
		 M 380.888,193.153c0.00-5.776-4.694-10.449-10.449-10.449L 140.561,182.704 c-5.755,0.00-10.449,4.673-10.449,10.449l0.00,62.694 
		c0.00,5.775, 4.694,10.449, 10.449,10.449l 229.877,0.00 c 5.755,0.00, 10.449-4.673, 10.449-10.449L 380.887,193.153 z" />
<glyph unicode="&#xe048;" d="M 436.517,405.517c-99.978,99.978-262.056,99.978-362.033,0.00c-99.957-99.978-99.957-262.056,0.00-362.033
		c 99.978-99.978, 262.056-99.978, 362.033,0.00C 536.474,143.461, 536.474,305.539, 436.517,405.517z M 403.048,287.458L 225.174,109.604
		c-2.653-2.674-7.041-2.674-9.714,0.00L 107.544,217.541c-2.674,2.652-2.674,7.02,0.00,9.714l 44.611,44.571
		c 2.653,2.673, 7.021,2.673, 9.673,0.00l 53.652-53.611c 2.673-2.653, 7.04-2.653, 9.714,0.00l 123.201,123.181
		c 2.674,2.673, 7.062,2.694, 9.775,0.041l 44.836-44.244C 405.701,294.478, 405.701,290.131, 403.048,287.458z" />
<glyph unicode="&#xe049;" d="M 255.50,480.50c-141.377,0.00-256.00-114.592-256.00-256.00s 114.623-256.00, 256.00-256.00c 141.378,0.00, 256.00,114.592, 256.00,256.00S 396.878,480.50, 255.50,480.50z
		 M 403.582,192.766c0.00-5.816-4.766-10.613-10.572-10.613l-95.193,0.00 l0.00-96.469 c0.00-5.837-4.745-10.633-10.571-10.633l-63.47,0.00 
		c-5.826,0.00-10.571,4.796-10.571,10.633l0.00,96.469 L 117.99,182.153 c-5.827,0.00-10.571,4.797-10.571,10.613l0.00,63.428 
		c0.00,5.816, 4.765,10.612, 10.571,10.612l 95.194,0.00 L 213.184,361.99 c0.00,5.837, 4.766,10.592, 10.571,10.592l 63.47,0.00 c 5.826,0.00, 10.571-4.755, 10.571-10.592
		l0.00-95.184 l 95.194,0.00 c 5.826,0.00, 10.571-4.796, 10.571-10.612L 403.582,192.766L 403.582,192.766z" />
<glyph unicode="&#xe04a;" d="M 298.275,67.766c0.00-5.756-4.693-10.449-10.449-10.449l-63.673,0.00 c-5.756,0.00-10.449,4.693-10.449,10.449l0.00,62.693 
		c0.00,5.755, 4.693,10.449, 10.449,10.449l 63.673,0.00 c 5.756,0.00, 10.449-4.694, 10.449-10.449L 298.275,67.766 z M 255.50,480.50
		c-141.388,0.00-256.00-114.612-256.00-256.00s 114.612-256.00, 256.00-256.00s 256.00,114.612, 256.00,256.00S 396.888,480.50, 255.50,480.50z M 315.051,228.01
		c-20.204-13.184-26.245-24.551-26.897-50.653c-0.082-2.857-2.388-5.103-5.225-5.103l-53.551,0.00 c-1.429,0.00-5.225,3.796-5.225,5.225
		l0.00,21.306 c0.00,22.348, 12.04,42.042, 36.897,60.164c 1.959,1.306, 20.551,13.49, 20.551,30.245c0.00,13.918-10.469,23.633-25.489,23.633
		c-21.347,0.00-33.266-10.714-34.408-31.123c-0.163-2.796-2.449-4.918-5.225-4.918l-2.775,0.00 l-53.51,0.00 c-1.429,0.00-2.816,0.592-3.816,1.633
		c-0.979,1.021-1.49,2.429-1.408,3.857c 2.918,56.796, 39.775,89.306, 101.224,89.306c 46.572,0.00, 96.735-25.265, 96.735-80.755
		C 352.929,253.602, 344.438,246.582, 315.051,228.01z" />
<glyph unicode="&#xe04b;" d="M 436.521,405.517c-99.978,99.978-262.056,99.978-362.034,0.00c-99.967-99.978-99.967-262.056,0.00-362.033
		c 99.978-99.978, 262.056-99.978, 362.034,0.00C 536.468,143.461, 536.488,305.539, 436.521,405.517z M 329.38,106.298
		c-4.062-4.04-10.724-4.04-14.775,0.00l-59.101,59.102l-59.101-59.102c-4.051-4.04-10.714-4.04-14.775,0.00l-44.325,44.326
		c-4.072,4.041-4.072,10.693,0.00,14.775l 59.101,59.101l-59.101,59.101c-4.072,4.082-4.072,10.734,0.00,14.775l 44.325,44.326
		c 4.062,4.04, 10.704,4.04, 14.775,0.00l 59.101-59.102l 59.101,59.102c 4.071,4.04, 10.714,4.04, 14.775,0.00l 44.325-44.326
		c 4.071-4.041, 4.071-10.734,0.00-14.775L 314.604,224.50l 59.101-59.101c 4.071-4.082, 4.071-10.734,0.00-14.775L 329.38,106.298z" />
<glyph unicode="&#xe04c;" d="M 385.283,319.708L 264.56,199.023l 14.832-14.891L 90.93-31.50L 5.191,54.219L 220.863,242.70l 14.831-14.851l 120.704,120.684
		L 385.283,319.708z M 364.512,480.50l-61.438-57.75l 183.398-187.505l 19.337,14.433l0.00,86.616 L 364.512,480.50z" />
<glyph unicode="&#xe04d;" d="M 360.422,310.066L 244.519,194.145l 14.029-14.01L 80.504-23.612l-81.01,80.99L 203.223,235.44l 14.029-14.066l 115.903,115.902
		L 360.422,310.066z M 455.837,337.352c-41.201,41.202-81.801,81.763-81.801,81.763L 346.77,419.115 l-27.285-27.248l0.00-27.247 l 61.35-61.407
		c0.00,0.00, 21.693-19.207, 47.736,6.836c 68.167-68.187, 74.983-129.574, 74.983-129.574l 6.816-6.816
		C 510.408,173.732, 524.041,269.166, 455.837,337.352z M 312.687,398.702l 27.304,27.267L 339.991,453.255 L 318.825,472.612l-54.534-54.552
		l 21.128-19.358L 312.687,398.702 z" />
<glyph unicode="&#xe04e;" d="M 255.50,158.521l0.00,40.917 c0.00,0.00-24.742,106.877-126.351,106.877c-101.588,0.00-125.443-105.402-127.011-103.67l0.00-44.124 l 21.114,0.00 
		l0.00-168.907 L 44.819-31.50l 167.588,0.00 l 22.00,21.113L 234.407,158.521 L 255.50,158.521 z M 129.149,278.273c 71.917,0.00, 95.217-77.525, 95.217-77.525L 206.51,200.748 L 51.211,200.748 
		L 33.314,200.748 C 33.314,200.748, 57.231,278.273, 129.149,278.273z M 276.613,52.953l 211.134,0.00 l 21.114-84.453L 255.50-31.50 L 276.613,52.953z
		 M 487.747,100.459l0.00-36.948 L 276.613,63.511 l0.00,36.948 c0.00,11.608, 4.247,15.835, 15.855,15.835l 68.598,0.00 L 361.066,459.387 c0.00,11.68, 9.465,21.113, 21.114,21.113
		s 21.113-9.433, 21.113-21.113l0.00-343.093 l 58.082,0.00 C 472.984,116.294, 487.747,112.067, 487.747,100.459z" />
<glyph unicode="&#xe04f;" d="M 255.50,480.50c-141.167,0.00-256.00-114.833-256.00-256.00c0.00-141.167, 114.833-256.00, 256.00-256.00c 141.167,0.00, 256.00,114.833, 256.00,256.00
			C 511.50,365.667, 396.667,480.50, 255.50,480.50z M 366.542,319.437c 4.156-4.146, 4.156-10.948,0.00-15.104l-69.719-69.761
			c 0.791-3.271, 1.322-6.698, 1.322-10.219c0.00-23.551-19.094-42.801-42.667-42.801c-15.958,0.00-29.719,10.926-37.031,21.594L 159.50,203.146 
			c-5.865,0.00-10.667,5.313-10.667,11.156l0.00,20.333 c0.00,5.844, 4.802,11.156, 10.667,11.156l 58.969,0.00 
			c 7.333,10.667, 21.073,21.583, 37.031,21.583c 4.197,0.00, 8.208-1.042, 12.052-2.188l 69.084,69.052c 4.135,4.135, 10.938,4.135, 15.072,0.00
			L 366.542,319.437z M 255.50,32.50c-106.052,0.00-192.00,85.948-192.00,192.00c0.00,106.052, 85.948,192.00, 192.00,192.00c 106.052,0.00, 192.00-85.948, 192.00-192.00
			C 447.50,118.448, 361.552,32.50, 255.50,32.50z" />
<glyph unicode="&#xe050;" d="M 422.416,254.25c0.00,0.206, 0.038,0.373, 0.038,0.56c0.00,72.692-57.468,131.615-128.369,131.615
		c-57.317,0.00-105.903-38.604-122.36-91.78c-6.325,1.325-12.911,2.053-19.628,2.053c-52.989,0.00-95.979-49.538-95.979-103.89
		c0.00-3.451, 0.149,3.508, 0.485-15.598c-0.131,0.00-0.298,0.00-0.41,0.00c-31.327,0.00-56.684-25.711-56.684-57.785
		c0.00-28.527, 18.136-56.852, 46.459-56.852s 409.659,0.00, 409.659,0.00c 32.839,19.107, 55.862,53.064, 55.862,92.061
		C 511.49,205.776, 471.86,252.459, 422.416,254.25z" />
<glyph unicode="&#xe051;" d="M 170.888,139.133l 54.02,0.019L 224.908,265.57 c0.00,5.225, 2.52,7.333, 7.781,7.333l 61.194-0.019c 5.252,0.00, 7.454-2.071, 7.454-7.333
			l0.00-126.418 l 54.458,0.00 c 2.827,0.00, 3.723-2.725, 1.987-4.964l-91.581-108.281c-0.979-1.25-2.276-1.68-3.555-1.68
			c-1.017,0.00-1.987,0.541-2.752,1.586l-91.031,108.543C 167.146,136.595, 168.061,139.133, 170.888,139.133z M 422.456,292.607
			c0.00,0.205, 0.037,0.373, 0.037,0.56c0.00,72.698-57.49,131.625-128.377,131.625c-57.342,0.00-105.912-38.607-122.37-91.787
			c-6.335,1.325-12.912,2.053-19.639,2.053c-53.003,0.00-95.994-49.542-95.994-103.896c0.00-3.452, 0.168,3.508, 0.494-15.599
			c-0.131,0.00-0.289,0.00-0.401,0.00c-31.329,0.00-56.706-25.713-56.706-57.789c0.00-28.53, 18.146-56.855, 46.462-56.855
			c 9.162,0.00, 55.345,0.00, 113.544,0.00l-12.577,14.983l-0.40,0.467l-0.383,0.447c-7.566,9.89-8.957,22.709-3.61,33.531
			c 5.271,10.767, 16.149,17.391, 28.353,17.391l 26.292,0.00 l0.00,97.758 c0.00,20.525, 15.655,35.994, 37.683,35.994l 57.322,0.00 
			c 21.896,0.00, 37.795-15.133, 37.795-35.994l0.00-97.758 l 25.797,0.00 c 12.212,0.00, 23.082-6.698, 28.353-17.466
			c 5.355-10.896, 3.938-23.847-3.703-33.717l-0.383-0.485l-0.401-0.43l-12.455-14.74c 51.584,0.00, 88.428,0.00, 88.428,0.00
			c 32.841,19.107, 55.886,53.067, 55.886,92.065C 511.519,244.13, 471.904,290.816, 422.456,292.607z" />
<glyph unicode="&#xe052;" d="M 169.445,172.273l 90.458,108.931c 0.766,1.026, 1.735,1.586, 2.762,1.586c 1.25,0.00, 2.575-0.392, 3.545-1.679l 91.578-108.277
			c 1.735-2.239, 0.84-4.964-1.978-4.964l-54.484,0.00 l0.00-126.414 c0.00-5.262-2.202-7.333-7.464-7.333l-61.183-0.69
			c-5.261,0.00-7.78,2.071-7.78,7.333L 224.899,167.18 l-53.439,0.299C 168.624,167.479, 167.71,170.017, 169.445,172.273z M 422.441,283.388
			c0.00,0.205, 0.037,0.373, 0.037,0.56c0.00,72.695-57.488,131.62-128.373,131.62c-57.339,0.00-105.908-38.568-122.365-91.783
			c-6.325,1.362-12.912,2.071-19.648,2.071c-52.991,0.00-95.981-49.559-95.981-103.911c0.00-3.415, 0.168,3.508, 0.485-15.60
			c-0.112,0.00-0.28,0.00-0.392,0.00c-31.329,0.00-56.705-25.712-56.705-57.768c0.00-28.548, 18.136-56.872, 46.46-56.872
			c 10.934,0.00, 85.962,0.00, 159.851,0.00l0.00,45.621 L 170.90,137.326 c-12.931,0.00-24.48,7.053-30.078,18.435c-5.635,11.494-4.198,25.077, 3.825,35.508
			l 0.392,0.522l 0.429,0.504l 90.757,108.185c 6.586,8.19, 16.177,12.855, 26.439,12.855c 10.636,0.00, 20.45-4.627, 27.13-12.763
			l 91.354-108.017l 0.41-0.503l 0.41-0.467c 8.061-10.449, 9.591-24.163, 3.90-35.731c-5.599-11.438-17.11-18.528-30.06-18.528l-35.378,0.00 
			l0.00-45.621 c 69.262,0.00, 135.184,0.00, 135.184,0.00c 32.84,19.106, 55.884,53.065, 55.884,92.063C 511.50,234.912, 471.887,281.615, 422.441,283.388z" />
<glyph unicode="&#xe053;" d="M 47.138,50.427l 13.659-9.12c 9.38-6.239, 26.279-11.359, 37.539-11.359l 273.369,0.00 c 11.279,0.00, 28.159,5.12, 37.538,11.359
		l 13.66,9.12l 47.618,40.958L-0.50,91.385 L 47.138,50.427zM 450.062,357.615l-20.479,0.00 L 429.583,419.053 L 40.479,419.053 l0.00-163.834 l0.00-61.438 l0.00-20.479 c0.00-33.918, 27.499-61.438, 61.438-61.438l 266.229,0.00 
		c 33.938,0.00, 61.438,27.52, 61.438,61.438l0.00,20.479 l 20.479,0.00 c 33.879,0.00, 61.438,27.56, 61.438,61.438l0.00,40.959 
		C 511.50,330.056, 483.94,357.615, 450.062,357.615z M 280.269,235.62c-12.92-12.66-27.599-27.02-40.278-44.358l-4.96-6.78l-4.96,6.78
		c-12.68,17.339-27.339,31.698-40.278,44.378c-20.799,20.359-37.238,36.459-37.238,55.858c0.00,26.019, 22.919,48.817, 49.059,48.817
		c 12.839,0.00, 24.498-5.60, 33.558-15.919c 9.40,10.319, 21.26,15.919, 34.02,15.919c 25.738,0.00, 48.317-22.799, 48.317-48.817
		C 317.467,272.099, 301.067,255.999, 280.269,235.62z M 470.541,255.219c0.00-11.299-9.199-20.479-20.479-20.479l-20.479,0.00 l0.00,20.479 l0.00,61.438 
		l 20.479,0.00 c 11.28,0.00, 20.479-9.18, 20.479-20.479L 470.541,255.219 z" />
<glyph unicode="&#xe054;" d="M 509.126,191.545c 1.401,10.814, 2.363,21.796, 2.363,32.966c0.00,11.212-0.962,22.151-2.363,32.966l-67.627,16.923
		c-4.393,16.441-10.856,32.004-19.182,46.416l 35.832,59.698c-13.491,17.509-29.159,33.176-46.667,46.668L 351.784,391.35
		c-14.413,8.325-29.976,14.789-46.417,19.202L 288.445,478.137C 277.631,479.538, 266.649,480.50, 255.479,480.50
		c-11.212,0.00-22.152-0.962-32.967-2.363l-16.922-67.585c-16.42-4.393-31.983-10.898-46.374-19.202l-59.72,35.853
		C 82.01,413.71, 66.321,398.085, 52.83,380.535l 35.831-59.699c-8.346-14.412-14.81-29.954-19.202-46.437L 1.874,257.477
		c-1.401-10.814-2.363-21.754-2.363-32.966c0.00-11.17, 0.962-22.151, 2.363-32.966l 67.585-16.923
		c 4.393-16.441, 10.898-32.024, 19.202-46.416l-35.853-59.699c 13.492-17.466, 29.117-33.175, 46.667-46.666l 59.699,35.831
		c 14.412-8.325, 29.975-14.746, 46.416-19.181l 16.922-67.627c 10.814-1.401, 21.755-2.364, 32.967-2.364
		c 11.17,0.00, 22.151,0.963, 32.966,2.364l 16.922,67.627c 16.463,4.413, 32.025,10.855, 46.438,19.181l 59.72-35.831
		c 17.445,13.491, 33.154,29.158, 46.646,46.666l-35.854,59.699c 8.325,14.412, 14.747,29.954, 19.182,46.396L 509.126,191.545z
		 M 255.479,134.963c-49.491,0.00-89.549,40.099-89.549,89.548c0.00,49.491, 40.058,89.59, 89.549,89.59c 49.449,0.00, 89.548-40.099, 89.548-89.59
		C 345.027,175.062, 304.929,134.963, 255.479,134.963z" />
<glyph unicode="&#xe055;" d="M 360.711,221.809c 0.994,7.667, 1.676,15.42, 1.676,23.368c0.00,7.917-0.682,15.672-1.676,23.353l-47.905,11.98
			c-3.113,11.684-7.695,22.685-13.611,32.901l 25.398,42.315c-9.563,12.41-20.639,23.53-33.078,33.108l-42.316-25.428
			c-10.216,5.931-21.217,10.482-32.90,13.611l-11.995,47.935c-7.666,0.964-15.42,1.646-23.367,1.646
			c-7.918,0.00-15.701-0.682-23.366-1.646l-11.996-47.935c-11.639-3.114-22.64-7.695-32.87-13.611L 70.401,388.849
			c-12.409-9.563-23.545-20.669-33.108-33.108l 25.399-42.301c-5.916-10.23-10.468-21.232-13.597-32.93L 1.16,268.514
			c-0.963-7.666-1.66-15.42-1.66-23.352c0.00-7.933, 0.697-15.687, 1.66-23.353l 47.936-11.994c 3.114-11.684, 7.695-22.70, 13.597-32.90
			l-25.414-42.316c 9.563-12.41, 20.669-23.516, 33.094-33.094l 42.301,25.414c 10.246-5.932, 21.247-10.482, 32.90-13.611l 11.996-47.936
			c 7.665-0.964, 15.448-1.646, 23.366-1.646c 7.947,0.00, 15.701,0.682, 23.367,1.646l 11.995,47.936c 11.698,3.129, 22.70,7.695, 32.916,13.611
			l 42.33-25.414c 12.395,9.578, 23.50,20.654, 33.063,33.094l-25.413,42.316c 5.931,10.215, 10.482,21.201, 13.611,32.885L 360.711,221.809z
			 M 180.921,181.703c-35.051,0.00-63.474,28.423-63.474,63.503c0.00,35.051, 28.423,63.474, 63.474,63.474
			c 35.08,0.00, 63.504-28.423, 63.504-63.474C 244.409,210.126, 215.972,181.703, 180.921,181.703zM 424.318,22.402c-3.796,0.00-7.532,0.326-11.209,0.831l-5.753,22.996l-0.845,0.252c-4.952,1.424-9.756,3.411-14.22,5.887
		l-0.771,0.40l-20.298-12.188c-6.391,5.026-11.477,10.187-15.88,15.895l 12.173,20.298l-0.40,0.80
		c-2.506,4.508-4.507,9.252-5.871,14.175l-0.237,0.846l-23.011,5.782c-0.52,4.196-0.831,7.694-0.831,11.21
		c0.00,3.795, 0.326,7.531, 0.831,11.208l 23.011,5.753l 0.237,0.859c 1.364,4.863, 3.365,9.668, 5.886,14.205l 0.40,0.771l-12.188,20.313
		c 4.981,6.331, 10.127,11.417, 15.895,15.865l 20.298-12.173l 0.771,0.43c 4.537,2.506, 9.282,4.479, 14.205,5.842l 0.845,0.237
		l 5.753,23.041c 4.226,0.519, 7.694,0.80, 11.209,0.80c 3.825,0.00, 7.532-0.311, 11.238-0.80l 5.753-23.041l 0.846-0.237
		c 4.893-1.363, 9.667-3.336, 14.204-5.842l 0.771-0.43l 20.283,12.173c 6.391-5.026, 11.491-10.157, 15.909-15.865l-12.188-20.313
		l 0.40-0.771c 2.476-4.463, 4.463-9.237, 5.901-14.205l 0.236-0.859l 22.997-5.753c 0.52-4.226, 0.83-7.694, 0.83-11.208
		c0.00-3.826-0.326-7.563-0.83-11.21l-22.997-5.782l-0.236-0.846c-1.453-4.952-3.426-9.727-5.901-14.175l-0.386-0.80l 12.173-20.283
		c-5.026-6.391-10.156-11.491-15.865-15.909l-20.297,12.217l-0.771-0.415c-4.448-2.476-9.223-4.463-14.233-5.901l-0.846-0.252
		l-5.753-22.996C 431.316,22.685, 427.862,22.402, 424.318,22.402z M 424.318,142.115c-17.97,0.00-32.59-14.619-32.59-32.59
		c0.00-17.984, 14.649-32.59, 32.59-32.59c 17.985,0.00, 32.619,14.635, 32.619,32.59C 456.938,127.496, 442.304,142.115, 424.318,142.115z" />
</font>
</defs>
</svg>
